1 сезон

3 сезон

iTunes

1

Line

MVO

iTunes

13

1 сезон

RePack

30

Deluxe

pack

Лицензия

ВАЖНО

ИГРА 18+

pack

RePack

MK11

RePack

jed

RePack

fifa19

RePack

RDR2

RePack

NEED FOR SPEED™ PAYBACK

4 сезон

9 сезон

Бесстыжие 9 сезон

Все сериалы

все сериалы на PB.wtf

RePack

FAR CRY 5

Anonymous, доброй ночи, мы катастрофически не успеваем собрать деньги на оплату серверов, помогите нам пожалуйста 5,10,15р., для нас важна любая помощь . В качестве благодарности мы отключим Вам всю рекламу на сайте (укажите свой ник в строку Ваше имя)!

×
  
Magnet ссылка

Гениальный папа / Father of Invention (Трент Купер / Trent Cooper) [2010, драма, комедия, DVD5] R5 pb.wtf

Гениальный папа через торрент pb.wtf

Размер: 4.15 GB | Добавлен: 8 лет 9 мес. назад | Торрент скачан:62 раза
Скачать  

19-10-2012 21:50 Гениальный папа Скачать торрент  


Гениальный папа / Father of Invention
«Sometimes the best ideas are homegrown»
Страна: США
Студия: Foi Productions, Horizon Entertainment, JKMPO, Pangea Media Group, Sunrise Films (II), Trigger Street Productions
Жанр: драма, комедия
Год выпуска: 2010
Мировая премьера: 15 февраля 2010
Российская премьера: 3 ноября 2011
Дата выхода DVD: 18 октября 2012
Продолжительность: 01:33:13
Перевод: Профессиональный (дублированный) [Лицензия]
Cубтитры: нет
Режиссер: Трент Купер / Trent Cooper
В ролях: Кевин Спейси, Камилла Белль, Джонни Ноксвил, Хэзер Грэм, Анна Анисимова, Джон Стамос, Ред Уэст, Майкл Розенбаум, Дэнни Комден, Джек МакГи
Описание: Роберт Аксель, эксцентричный изобретатель, считает себя настоящим гуру. Но он теряет все в один миг, когда одно из его изобретений калечит тысячи покупателей. Его ждали тюрьма и 8 лет затворничества, после Аксель готов восстановить свое имя и свою многомиллионную империю. Но пока что ему нужно уговорить свою 22-летнюю дочь пустить его к себе в дом, чтобы где-то жить.
Бонусы: нет

Релиз группы:
Качество: DVD5 R5
Формат: DVD-Video
Видео кодек: MPEG2
Аудио кодек: AC3
Видео: PAL 16:9 (720x576(0.589)) MPEG Video, 25,000 кадр/сек, 6111 Кбит/сек
Аудио: Russian (Dolby AC3, 6 ch) 448 Кбит/сек, 48,0 КГц



Title: Genialnyj.papa.2010.DVD5
Size: 4.15 Gb ( 4 353 410,00 KBytes ) - DVD-5
Enabled regions: 1, 2, 3, 4, 5, 6, 7, 8

VTS_01 :
Play Length: 00:00:16+00:02:11
Video: PAL 16:9 (720x576) VBR, Auto Letterboxed
Audio:
Russian (Dolby AC3, 2 ch)

VTS_02 :
Play Length: 01:29:25
Video: PAL 16:9 (720x576) VBR, Auto Letterboxed
Audio:
Russian (Dolby AC3, 6 ch)

* Menus Information *

VIDEO_TS Menu
Video:
NTSC 4:3 (720x480) VBR
Auto Pan&Scan, Auto Letterboxed
Russian Language Unit :
Title Menu

VTS_01 Menu
Video:
NTSC 4:3 (720x480) VBR
Auto Pan&Scan, Auto Letterboxed
Language Unit :

Language Unit :

Language Unit :

VTS_02 Menu
Video:
PAL 16:9 (720x576) VBR
Auto Letterboxed
Audio:
Not specified (Dolby AC3, 2 ch)
Russian Language Unit :
Root Menu
Chapter (PTT) Menu
Общее
Полное имя : J:Новинки 2012Genialnyj.papa.2010.DVD5VIDEO_TSVTS_02_1.VOB
Формат : MPEG-PS
Размер файла : 1024 Мбайт
Продолжительность : 21 м.
Режим общего битрейта : Переменный
Общий поток : 6692 Кбит/сек

Видео
Идентификатор : 224 (0xE0)
Формат : MPEG Video
Версия формата : Version 2
Профиль формата : Main@Main
Параметр BVOP формата : Да
Параметр матрицы формата : Выборочная
Продолжительность : 21 м.
Вид битрейта : Переменный
Битрейт : 6111 Кбит/сек
Максимальный битрейт : 8500 Кбит/сек
Ширина : 720 пикселей
Высота : 576 пикселей
Соотношение сторон : 16:9
Частота кадров : 25,000 кадров/сек
Стандарт вещания : PAL
Цветовое пространство : YUV
Субдискретизация насыщенности : 4:2:0
Битовая глубина : 8 бит
Тип развёртки : Чересстрочная
Порядок развёртки : Верхнее поле первое
Метод сжатия : С потерями
Бит/(Пиксели*Кадры) : 0.589
Размер потока : 935 Мбайт (91%)

Аудио
Идентификатор : 189 (0xBD)-128 (0x80)
Формат : AC-3
Формат/Информация : Audio Coding 3
Расширение режима : CM (complete main)
Параметр Endianness формата : Big
Режим смешивания : DVD-Video
Продолжительность : 21 м.
Вид битрейта : Постоянный
Битрейт : 448 Кбит/сек
Каналы : 6 каналов
Расположение каналов : Front: L C R, Side: L R, LFE
Частота : 48,0 КГц
Битовая глубина : 16 бит
Метод сжатия : С потерями
Размер потока : 68,5 Мбайт (7%)










pb.wtf



Скачать Гениальный папа через торрент http://i44.fastpic.ru/big/2012/1019/c4/d03a8102fa3f9261710ef09069ab47c4.jpg Скачать фильм Гениальный папа через торрент бесплантно в хорошем качестве Описание: Роберт Аксель, эксцентричный изобретатель, считает себя настоящим гуру. Но он теряет все в один миг, когда одно из его ... 5 10 1
Info! Золотая раздача, скачанное не засчитывается.
Торрент: Зарегистрирован [2012-10-19 21:50] · скачан: 62 раз
Статус: √ проверено
Размер: 4.15 GB
Как cкачать? Как скачать Гениальный папа через торрент | UTorrent

28-11-2019 20:33  

Отключить всю рекламу на сайте

    Дорогой пользователь! Огромная просьба, поблагодарите релизера, оцените раздачу и оставьте свои комментарий, если Вы скачали Гениальный папа через торрент бесплатно! Внесите свою лепту в развитие PiratBit!
    Комментировать посты могут только пользователи прошедшие не сложную регистрацию
    Показать сообщения:    

    Гениальный папа через торрент
    Скачать бесплатно Гениальный папа
    Гениальный папа скачать торрент
    Гениальный папа смотреть онлайн
    Cкачать фильм Гениальный папа бесплатно
    Гениальный папа скачать торрент в хорошем качестве
    Гениальный папа смотреть онлайн бесплатно в хорошем качестве


    Вы не можете начинать темы
    Вы не можете отвечать на сообщения
    Вы не можете редактировать свои сообщения
    Вы не можете удалять свои сообщения
    Вы не можете голосовать в опросах
    Вы не можете прикреплять файлы к сообщениям
    Вы можете скачивать файлы