Доктор Стрэндж

Лицензия

Добыча

Дубляж

Дом дракона

1 сезон

Тор

Дубляж

В эфире

Дубляж

Там, где раки поют

MVO

Властелин колец

1 сезон

GLOBAL

pack

Рекомендуем

30

Пиратка

ВАЖНО

ВАЖНО

Ghostwire

Пиратка

jed

RePack

nioh2

RePack

RDR2

RePack

NEED FOR SPEED™ PAYBACK

RePack

скачать торрент

Кинопоиск HD

Острые козырьки 6 сезон

6 сезон

FAR CRY 6

RePack

скачать торрент

Лицензия

скачать торрент

MVO

1

1 сезон

скачать торрент

1 сезон

скачать торрент

Лицензия

  

Искупление / Redemption (Джозеф Стахура) [2011 г., драма, мелодрама, приключения, вестерн, Blu-Ray Remux (1080p), MVO]

Искупление через торрент pb.wtf

Размер: 17.32 GB | Добавлен: 10 лет назад | Торрент скачан:34 раза
Смотреть онлайн | Скачать   

20-10-2012 06:07 Искупление Скачать торрент  

Искупление / Redemption
Год выпуска: 2011
Страна: США
Жанр: драма, мелодрама, приключения, вестерн
Продолжительность: 01:42:22
Перевод: Профессиональный многоголосый
Режиссер: Джозеф Стахура
Продюссер: Julia Morizawa, Ли Рудницкий, Шэри Шаттак
Сценарий: Джозеф Стахура
Мировой рейтинг IMDB 3.80 (57)

В ролях: Дерек Бурк, Джули Смит, Адам Чэмберс, Шейна Ворспан, Марко Невез, Анибал Силвейра, Келли Божек, Adam Dlugolecki, Charlie Guillen, Amanda Vermillion
Описание: История о том, как выживало разорившееся семейство южан по окончании Гражданской войны в 1865 году, их путь оказался далек от быстрых успехов Скарлетт О`Охара. Потерявшая все состояние семья плантаторов отправляется в Калифорнию, чтобы попытаться в большом городе начать новую жизнь, вернуть финансовую стабильность или, хотя бы, просто средства к существованию.
Качество: Blu-Ray Remux (1080p)
Формат: MKV
Видео кодек: H.264x
Аудио кодек: AC3,DTS
Видео: AVC at 22,0 Мбит/сек : 1920 x 1080 (1.778) at 23.976 fps
Аудио#1: AC-3 at 192 Кбит/сек : 2 канала, 48,0 КГц Language : Русский
Аудио#2: DTS at 1561 Кбит/сек / 1510 Кбит/сек : 6 каналов, 48,0 КГц Language: английский

Общее
Уникальный идентификатор : 253531402403821609447324096396746981459 (0xBEBC5F39A2BD4FE0867F8BB998528053)
Полное имя : G:Искупление.2011.Blu-Ray.Remux.(1080p).mkv
Формат : Matroska
Версия формата : Version 2
Размер файла : 17,3 Гбайт
Продолжительность : 1 ч. 42 м.
Режим общего битрейта : Переменный
Общий поток : 24,2 Мбит/сек
Дата кодирования : UTC 2012-10-18 15:20:23
Программа кодирования : mkvmerge v5.8.0 ('No Sleep / Pillow') built on Sep 2 2012 15:37:04
Библиотека кодирования : libebml v1.2.3 + libmatroska v1.3.0

Видео
Идентификатор : 1
Формат : AVC
Формат/Информация : Advanced Video Codec
Профиль формата : [email protected]
Параметр CABAC формата : Да
Параметр ReFrames формата : 4 кадра
Режим смешивания : Container [email protected]
Идентификатор кодека : V_MPEG4/ISO/AVC
Продолжительность : 1 ч. 42 м.
Вид битрейта : Переменный
Битрейт : 22,0 Мбит/сек
Максимальный битрейт : 33,0 Мбит/сек
Ширина : 1920 пикселей
Высота : 1080 пикселей
Соотношение сторон : 16:9
Режим частоты кадров : Постоянный
Частота кадров : 23,976 кадра/сек
Стандарт вещания : NTSC
Цветовое пространство : YUV
Субдискретизация насыщенности : 4:2:0
Битовая глубина : 8 бит
Тип развёртки : Прогрессивная
Бит/(Пиксели*Кадры) : 0.442
Размер потока : 15,7 Гбайт (91%)
Default : Нет
Forced : Нет
Основные цвета : BT.709
Характеристики трансфера : BT.709
Коэффициенты матрицы : BT.709

Аудио #1
Идентификатор : 2
Формат : AC-3
Формат/Информация : Audio Coding 3
Расширение режима : CM (complete main)
Параметр Endianness формата : Big
Идентификатор кодека : A_AC3
Продолжительность : 1 ч. 42 м.
Вид битрейта : Постоянный
Битрейт : 192 Кбит/сек
Каналы : 2 канала
Расположение каналов : Front: L R
Частота : 48,0 КГц
Битовая глубина : 16 бит
Метод сжатия : С потерями
Размер потока : 141 Мбайт (1%)
Язык : Russian
Default : Да
Forced : Нет

Аудио #2
Идентификатор : 3
Формат : DTS
Формат/Информация : Digital Theater Systems
Профиль формата : MA / Core
Идентификатор кодека : A_DTS
Продолжительность : 1 ч. 42 м.
Вид битрейта : Переменный
Битрейт : 1561 Кбит/сек / 1510 Кбит/сек
Каналы : 6 каналов
Расположение каналов : Front: L C R, Side: L R, LFE
Частота : 48,0 КГц
Битовая глубина : 24 бит
Метод сжатия : Без потерь / Lossy
Язык : English
Default : Нет
Forced : Нет

Меню
00:00:00.000 : :Chapter 01
00:15:22.046 : :Chapter 02
00:27:27.937 : :Chapter 03
00:31:14.163 : :Chapter 04
00:37:59.026 : :Chapter 05
00:50:54.051 : :Chapter 06
01:09:38.883 : :Chapter 07
01:28:38.855 : :Chapter 08




Скачать Искупление через торрент http://i45.fastpic.ru/big/2012/1018/98/122aed6b28ed524f93cd796563c24f98.jpg Скачать, смотреть онлайн Искупление бесплантно в хорошем качестве Описание: История о том, как выживало разорившееся семейство южан по окончании Гражданской войны в 1865 году, их путь оказался далек от ... 5 10 1
Info! Золотая раздача, скачанное не засчитывается.
Торрент: Зарегистрирован [2012-10-20 06:07] · скачан: 34 раз
Статус: √ проверено
Размер: 17.32 GB
Как cкачать? Как скачать Искупление через торрент | UTorrent

28-11-2019 20:33  


Отключить вcю реклaмy на сайте, в т.ч. и в плеере онлайн просмотра!

    Дорогой пользователь! Огромная просьба, поблагодарите релизера, оцените раздачу и оставьте свои комментарий, если Вы скачали Искупление через торрент бесплатно!!
    Комментировать посты могут только пользователи прошедшие не сложную регистрацию
    Показать сообщения:    


    Искупление через торрент
    Скачать бесплатно Искупление
    Искупление скачать торрент
    Искупление смотреть онлайн
    Cкачать фильм Искупление бесплатно
    Искупление скачать торрент в хорошем качестве
    Искупление смотреть онлайн бесплатно в хорошем качестве
    Вы не можете начинать темы
    Вы не можете отвечать на сообщения
    Вы не можете редактировать свои сообщения
    Вы не можете удалять свои сообщения
    Вы не можете голосовать в опросах
    Вы не можете прикреплять файлы к сообщениям
    Вы можете скачивать файлы
    Искупление / Redemption [2011 г., драма, мелодрама, приключения, вестерн, Blu-Ray Remux , MVO] смотреть онлайн, скачать торрент picoco.icu