Всегда рабочее зеркало без VPN и Proxy просто перед .vidak.icu напиши любое слово или цифру, Пример http://bhtc.vidak.icu

MVO

MVO

1 сезон

1

1 сезон

iTunes

1 сезон

13

1 сезон

Deluxe

pack

Рекомендуем

Repack

30

ВАЖНО

RePack

MK11

RePack

jed

RePack

fifa19

RePack

RDR2

RePack

NEED FOR SPEED™ PAYBACK

Кинопоиск HD

6 сезон

 Острые козырьки 6 сезон

Все сериалы

все сериалы на PB.wtf

RePack

FAR CRY 5
  
Magnet ссылка

Нечто / The Thing (Маттис ван Хейниген мл.) [2011, ужасы, фантастика, триллер, детектив, BDRip-AVC] [US Transfer] DUB + Original + Sub (rus., eng.) pb.wtf

Нечто через торрент pb.wtf

Размер: 2.18 GB | Добавлен: 9 лет 9 мес. назад | Торрент скачан:791 раз
Смотреть онлайн Нечто | Скачать    Ребята, помогите собрать деньги на оплату серверов!!!

20-10-2012 07:15 Нечто Скачать торрент  

Нечто / The Thing


Год выпуска: 2011
Страна: США, Канада / Morgan Creek Productions, Strike Entertainment
Жанр: Ужасы, фантастика, триллер, детектив
Продолжительность: 01:43:00
Перевод: Профессиональный (полное дублирование)
Субтитры: Русские, английские
Навигация по главам: Есть
Бюджет: $38 000 000
Сборы в мире: $27 428 670
Сборы в России: $2 528 842
Режиссер: Маттис ван Хейниген мл.

В ролях: Мэри Элизабет Уинстэд, Джоэл Эдгертон, Ульрих Томсен, Эрик Кристиан Олсен, Адевале Акиннуойе-Агбадже, Пол Браунштейн, Тронд Эспен Сейм, Ким Баббс, Ёрген Лангхелле, Ян Гуннар Рёйсе

Описание: Научная экспедиция обнаруживает в Антарктике потерпевший крушение инопланетный космический корабль. Группа отчаянных учёных проникает в его недра и неожиданно для самих себя открывает ящик Пандоры. Среди непроходимых снегов и ледяных гор, выпущенное на свободу Нечто устраивает на исследовательской станции жуткую бойню.

Официальный сайт
Качество: BDRip-AVC [BDRemux | US Transfer]
Формат: MKV
Видео кодек: H.264
Аудио кодек: AC3
Видео: 1056x440 (2,40:1), 23,976 кадр/сек, 2264 Кбит/сек, 0.203 bit/pixel
Аудио#1: 48 kHz, AC3 Dolby Digital, 3/2 (L,C,R,l,r) + LFE ch, ~384.00 kbps avg | RUS
Аудио#2: 48 kHz, AC3 Dolby Digital, 3/2 (L,C,R,l,r) + LFE ch, ~384.00 kbps avg | ENG


Общее
Уникальный идентификатор : 234549390832889990491083305478206480722 (0xB07491CC57F16FB287C4E2BEB0E36152)
Полное имя : Nechto.2011.D.BDRip.x264.US.Transfer.potroks.mkv
Формат : Matroska
Версия формата : Version 2
Размер файла : 2,18 Гбайт
Продолжительность : 1 ч. 43 м.
Общий поток : 3031 Кбит/сек
Название фильма : -=POTROKS=-
Дата кодирования : UTC 2012-08-09 09:12:52
Программа кодирования : mkvmerge v5.6.0 ('Kenya Kane') built on May 27 2012 16:44:04
Библиотека кодирования : libebml v1.2.3 + libmatroska v1.3.0

Видео
Идентификатор : 1
Формат : AVC
Формат/Информация : Advanced Video Codec
Профиль формата : [email protected]
Параметр CABAC формата : Да
Параметр ReFrames формата : 10 кадров
Идентификатор кодека : V_MPEG4/ISO/AVC
Продолжительность : 1 ч. 43 м.
Битрейт : 2264 Кбит/сек
Ширина : 1056 пикселей
Высота : 440 пикселей
Соотношение сторон : 2,40:1
Режим частоты кадров : Переменный
Частота кадров : 23,976 кадра/сек
Цветовое пространство : YUV
Субдискретизация насыщенности : 4:2:0
Битовая глубина : 8 бит
Тип развёртки : Прогрессивная
Бит/(Пиксели*Кадры) : 0.203
Размер потока : 1,58 Гбайт (73%)
Заголовок : Nechto.2011.D.BDRip.x264.US.Transfer.potroks
Библиотека кодирования : x264 core 116 r2019M 9cc407d
Настройки программы : cabac=1 / ref=11 / deblock=1:-2:-2 / analyse=0x3:0x133 / me=umh / subme=10 / psy=1 / psy_rd=1.00:0.10 / mixed_ref=1 / me_range=32 / chroma_me=1 / trellis=2 / 8x8dct=1 / cqm=0 / deadzone=21,11 / fast_pskip=0 / chroma_qp_offset=-3 / threads=8 / sliced_threads=0 / nr=0 / decimate=1 / interlaced=0 / bluray_compat=0 / constrained_intra=0 / bframes=10 / b_pyramid=1 / b_adapt=2 / b_bias=0 / direct=3 / weightb=1 / open_gop=0 / weightp=2 / keyint=240 / keyint_min=23 / scenecut=40 / intra_refresh=0 / rc_lookahead=100 / rc=2pass / mbtree=1 / bitrate=2264 / ratetol=1.0 / qcomp=0.70 / qpmin=10 / qpmax=51 / qpstep=4 / cplxblur=20.0 / qblur=0.5 / vbv_maxrate=20000 / vbv_bufsize=20000 / nal_hrd=none / ip_ratio=1.35 / aq=1:0.90
Язык : English
Default : Да
Forced : Нет

Аудио #1
Идентификатор : 2
Формат : AC-3
Формат/Информация : Audio Coding 3
Расширение режима : CM (complete main)
Параметр Endianness формата : Big
Идентификатор кодека : A_AC3
Продолжительность : 1 ч. 43 м.
Вид битрейта : Постоянный
Битрейт : 384 Кбит/сек
Каналы : 6 каналов
Расположение каналов : Front: L C R, Side: L R, LFE
Частота : 48,0 КГц
Битовая глубина : 16 бит
Метод сжатия : С потерями
Размер потока : 283 Мбайт (13%)
Язык : Russian
Default : Да
Forced : Да

Аудио #2
Идентификатор : 3
Формат : AC-3
Формат/Информация : Audio Coding 3
Расширение режима : CM (complete main)
Параметр Endianness формата : Big
Идентификатор кодека : A_AC3
Продолжительность : 1 ч. 43 м.
Вид битрейта : Постоянный
Битрейт : 384 Кбит/сек
Каналы : 6 каналов
Расположение каналов : Front: L C R, Side: L R, LFE
Частота : 48,0 КГц
Битовая глубина : 16 бит
Метод сжатия : С потерями
Размер потока : 283 Мбайт (13%)
Язык : English
Default : Нет
Forced : Нет

Текст #1
Идентификатор : 4
Формат : UTF-8
Идентификатор кодека : S_TEXT/UTF8
Идентификатор кодека/Информация : UTF-8 Plain Text
Заголовок : voronine
Язык : Russian
Default : Нет
Forced : Нет

Текст #2
Идентификатор : 5
Формат : UTF-8
Идентификатор кодека : S_TEXT/UTF8
Идентификатор кодека/Информация : UTF-8 Plain Text
Заголовок : SDH
Язык : English
Default : Нет
Forced : Нет

Меню
00:00:00.000 : en:Chapter 1
00:04:31.897 : en:Chapter 2
00:10:51.901 : en:Chapter 3
00:14:41.422 : en:Chapter 4
00:17:05.775 : en:Chapter 5
00:20:39.655 : en:Chapter 6
00:25:09.550 : en:Chapter 7
00:32:49.634 : en:Chapter 8
00:38:06.117 : en:Chapter 9
00:43:02.705 : en:Chapter 10
00:51:15.739 : en:Chapter 11
00:55:13.185 : en:Chapter 12
01:00:04.351 : en:Chapter 13
01:04:51.805 : en:Chapter 14
01:09:58.236 : en:Chapter 15
01:14:39.517 : en:Chapter 16
01:20:58.520 : en:Chapter 17
01:24:46.373 : en:Chapter 18
01:30:30.675 : en:Chapter 19
01:34:56.316 : en:Chapter 20
pb.wtf



Скачать Нечто через торрент http://lostpic.net/images/0f42b94cdda74de41d1fcb54f8409149.png Скачать, смотреть онлайн Нечто бесплантно в хорошем качестве Описание: Научная экспедиция обнаруживает в Антарктике потерпевший крушение инопланетный космический корабль. Группа отчаянных учёных ... 9.4 10 16
Info! Золотая раздача, скачанное не засчитывается.
Торрент: Зарегистрирован [2012-10-20 07:15] · скачан: 791 раз
Статус: √ проверено
Размер: 2.18 GB
Как cкачать? Как скачать Нечто через торрент | UTorrent

% Раздел Тема Автор DL S | L
Фильмы (Blu-ray, BD-Remux, HDDVD) [ 35.32 GB ] Нечто / The Thing [2011 BD Remux 1080p] DUB +2xAVO+2xMVO bober100 Скачать
1 | 0
Фильмы (Blu-ray, BD-Remux, HDDVD) [ 65.73 GB ] Нечто / The Thing [1982 BDRemux 1080p] 6xMVO + 2xDVO + 7xAVO + VO [4K Remastered] sheker187 Скачать
1 | 0
Фильмы [HD 720p, 1080p] (Хороший звук DUB, MVO) [ 4.37 GB ] Нечто / The Thing [2011 BDRip 1080p] DUB bober100 Скачать
1 | 0
Фильмы [HD 720p, 1080p] (Хороший звук DUB, MVO) [ 15.46 GB ] Нечто / The Thing [1982 BDRip 1080p] 6xMVO + 5xAVO + Original Eng -Lexx- Скачать
1 | 0
Видео для КПК и Смартфонов [ 515 MB ] Нечто / The Thing [1982 HDRip / КПК / Goblin] Ворон Скачать
1 | 0
Сборники и Сиквелы (48-60 fps) [ 9.69 GB ] Нечто: Дилогия / The Thing: Dilogy [1982-2011 BDRip 720pМногоголосый закадровый+) 60fps Tiberiumsun69 Скачать
1 | 0
Фильмы до 2000 г. [ 1.47 GB ] Нечто / The Thing [1982 BDRip] Sудья Скачать
1 | 1

28-11-2019 20:33  

Отключить вcю реклaмy на сайте

20-10-2012 07:26 Нечто Скачать торрент  

а что значит отдать столько то очков за файл?pb.wtf



20-10-2012 07:35 Нечто Скачать торрент  

potroks
Присвоить раздаче золото или серебро.pb.wtf



20-10-2012 07:38 Нечто Скачать торрент  

а сколько на золото и сколько на серебро?pb.wtf



05-04-2013 20:34 Нечто Скачать торрент  

:good: pb.wtf



    Дорогой пользователь! Огромная просьба, поблагодарите релизера, оцените раздачу и оставьте свои комментарий, если Вы скачали Нечто через торрент бесплатно!
    Комментировать посты могут только пользователи прошедшие не сложную регистрацию
    Показать сообщения:    

    Нечто через торрент
    Скачать бесплатно Нечто
    Нечто скачать торрент
    Нечто смотреть онлайн
    Cкачать фильм Нечто бесплатно
    Нечто скачать торрент в хорошем качестве
    Нечто смотреть онлайн бесплатно в хорошем качестве


    Вы не можете начинать темы
    Вы не можете отвечать на сообщения
    Вы не можете редактировать свои сообщения
    Вы не можете удалять свои сообщения
    Вы не можете голосовать в опросах
    Вы не можете прикреплять файлы к сообщениям
    Вы можете скачивать файлы