Ссылка на приватное зеркало нашего сайта всего за 1$. Внимание количество ограничено!!!

2 сезон

iTunes

1 сезон

1

iTunes

iTunes

iTunes

1 сезон

RePack

30

ИГРА 18+

pack

ВАЖНО

!!Акция!!

Alien_RageХит недели

RePack

MK11
pack

Забери бонус

RePack

jed

!!Акция!!

Alien_Rage

RePack

fifa19

RePack

Assassins Creed: Odyssey

RePack

NEED FOR SPEED™ PAYBACK

4 сезон

9 сезон

Бесстыжие 9 сезон

Все сериалы

все сериалы на PB.wtf

RePack

FAR CRY 5
  

Лисенок Вук / Vuk (Аттила Даргаи) [1981 г., Мультфильм, Приключения, Семейный., DVDRip, DUB, лицензия] pb.wtf

Лисенок Вук через торрент pb.wtf

Размер: 1.05 GB | Добавлен: 8 лет назад | Торрент скачан:405 раз
Скачать  

20-10-2012 16:20 Лисенок Вук Скачать торрент  

Лисенок Вук / Vuk

Год выпуска: 1981
Страна: Венгрия.
Жанр: Мультфильм, Приключения, Семейный.
Продолжительность: 01:05:46
Перевод: Дубляж, Лицензия

Режиссер: Аттила Даргаи
Сценарий: Аттила Даргаи, Иштван Имре, Ede Tarbay

Премьера в мире: 10.12.1981.

для любой зрительской аудитории
7.70 (2 712)
http://www.kinopoisk.ru/film/69491/

В ролях: Юдит Погани, Тери Фёлди, Гила Сабо, Ласло Чаканьи, Эржебет Кутвёлдьи, Тибор Бичкеи, Миклош Бенедек, Дьюла Бодроги, Антал Фаркаш, Питер Хауманн, Янош Хоркаи, Гила Ховарт, Роберт Колтаи, Габор Марош, Андраш Мартон, Пал Шомодьявари, Отто Сабо, Шандор Сабо, Ференц Зенте.

Описание: Этот мультипликационный фильм, созданный по мотивам одноименной сказки И. Фекете, рассказывает о приключениях маленького озорного лисенка Вука. Много пережил этот хвастунишка, прежде чем превратился в сильного умного лиса, сумевшего перехитрить даже известного охотника Гладкокожего.

Качество: DVDRip
Формат: AVI
Видео кодек: XviD
Аудио кодек: AC3
Видео: MPEG-4 Visual, XviD, 2079 Кбит/сек, 720*544 пикселя, 25,000 кадров/сек
Аудио#1: AC-3, 192 Кбит/сек, 2 канала, 48,0 КГц





Формат : AVI
Формат/Информация : Audio Video Interleave
Размер файла : 1,05 Гбайт
Продолжительность : 1 ч. 5 м.
Общий поток : 2280 Кбит/сек
Программа кодирования : VirtualDubMod 1.5.10.2 (build 2540/release)
Библиотека кодирования : VirtualDubMod build 2540/release

Видео
Идентификатор : 0
Формат : MPEG-4 Visual
Профиль формата : Advanced Simple@L5
Параметр BVOP формата : 1
Параметр QPel формата : Нет
Параметр GMC формата : Без точки перехода
Параметр матрицы формата : Default (MPEG)
Идентификатор кодека : XVID
Идентификатор кодека/Подсказка : XviD
Продолжительность : 1 ч. 5 м.
Битрейт : 2079 Кбит/сек
Ширина : 720 пикселей
Высота : 544 пикселя
Соотношение сторон : 4:3
Частота кадров : 25,000 кадров/сек
Цветовое пространство : YUV
Субдискретизация насыщенности : 4:2:0
Битовая глубина : 8 бит
Тип развёртки : Прогрессивная
Метод сжатия : С потерями
Бит/(Пиксели*Кадры) : 0.212
Размер потока : 978 Мбайт (91%)
Библиотека кодирования : XviD 63

Аудио
Идентификатор : 1
Формат : AC-3
Формат/Информация : Audio Coding 3
Расширение режима : CM (complete main)
Параметр Endianness формата : Big
Идентификатор кодека : 2000
Продолжительность : 1 ч. 5 м.
Вид битрейта : Постоянный
Битрейт : 192 Кбит/сек
Каналы : 2 канала
Расположение каналов : Front: L R
Частота : 48,0 КГц
Битовая глубина : 16 бит
Метод сжатия : С потерями
Задержка видео : 24 мс.
Размер потока : 90,3 Мбайт (8%)
Выравнивание : Разделение по промежуткам
Продолжительность промежутка : 40 мс. (1,00 видеокадр)
Время предзагрузки промежутка : 500 мс.

pb.wtf



Скачать Лисенок Вук через торрент http://pic.kartinco.top/images/1/v3196hjzqm.jpg Скачать фильм Лисенок Вук через торрент бесплантно в хорошем качестве Описание: Этот мульликационный фильм, созданный по мотивам одноименной сказки И. Фекете, рассказывает о приключениях маленького озорного ... 9.8 10 5
Info! Золотая раздача, скачанное не засчитывается.
Торрент: Зарегистрирован [2012-10-20 16:20] · скачан: 405 раз
Статус: √ проверено
Размер: 1.05 GB
Как cкачать? Как скачать Лисенок Вук через торрент | qTorrent

% Раздел Тема Автор DL S | L
Иностранные мультфильмы [ 1.26 GB ] Лисенок Вук / Vuk: Der kleine Fuchs [1981 Детский DVDRip] SD Скачать
1 | 0


Последний раз редактировалось: lexxus350 (2012-10-20 17:36), всего редактировалось 1 раз

28-11-2019 20:33  

Отключить всю рекламу на сайте

20-10-2012 17:26 Лисенок Вук Скачать торрент  

Уменьшить постер!pb.wtf



20-10-2012 20:04 Лисенок Вук Скачать торрент  

Супер мульт! Родом из детства, класс советую всем! За такой релиз только респект! pb.wtf



24-10-2012 10:52 Лисенок Вук Скачать торрент  

спасибо, в детстве смотрел, скачаю ребёнку......pb.wtf



04-09-2013 12:57 Лисенок Вук Скачать торрент  

Спасибо! Мультфильмы из детства - это просто чудесно!pb.wtf



    Дорогой пользователь! Огромная просьба, поблагодарите релизера, оцените раздачу и оставьте свои комментарий, если Вы скачали Лисенок Вук через торрент бесплатно! Внесите свою лепту в развитие PiratBit!
    Комментировать посты могут только пользователи прошедшие не сложную регистрацию
    Показать сообщения:    

    Лисенок Вук через торрент
    Скачать бесплатно Лисенок Вук
    Лисенок Вук скачать торрент
    Лисенок Вук смотреть онлайн
    Cкачать фильм Лисенок Вук бесплатно
    Лисенок Вук скачать торрент в хорошем качестве
    Лисенок Вук смотреть онлайн бесплатно в хорошем качестве


    Вы не можете начинать темы
    Вы не можете отвечать на сообщения
    Вы не можете редактировать свои сообщения
    Вы не можете удалять свои сообщения
    Вы не можете голосовать в опросах
    Вы не можете прикреплять файлы к сообщениям
    Вы можете скачивать файлы