2 сезон

iTunes

MVO

1

2 сезон

iTunes

iTunes

1 сезон

RePack

30

Новинка

ВАЖНО

ИГРА 18+

pack

RePack

MK11
pack

Легкие деньги

RePack

jed

RePack

fifa19

RePack

RDR2

RePack

NEED FOR SPEED™ PAYBACK

4 сезон

9 сезон

Бесстыжие 9 сезон

Все сериалы

все сериалы на PB.wtf

RePack

FAR CRY 5

Anonymous, добрый день, мы не успеваем собрать деньги на оплату серверов за декабрь и январь, помогите нам пожалуйста в это трудное время. В качестве благодарности мы отключим Вам всю рекламу на сайте (укажите свой ник в строку Ваше имя)!

×
  
Magnet ссылка

И не было лучше брата (Мурад Ибрагимбеков) [2011 г., драма, SATRip, Оригинал] pb.wtf

И не было лучше брата через торрент pb.wtf

Размер: 1.37 GB | Добавлен: 8 лет 3 мес. назад | Торрент скачан:36 раз
Скачать  

21-10-2012 13:27 И не было лучше брата Скачать торрент  

И не было лучше брата

Год выпуска: 2011
Страна: Россия, Болгария, Азербайджан
Жанр: драма
Продолжительность: 01:26:59
Перевод: Оригинал

Режиссер: Мурад Ибрагимбеков
Продюссер: Мурад Ибрагимбеков, Дэвид Шуфутинский, Александр Швыдкой
Сценарий: Павел Финн, Мурад Ибрагимбеков

Премьера в мире: 29 сентября 2012

В ролях: Нино Нинидзе, Сергей Пускепалис, Евгений Цыганов, Гаджи Исмайлов

Описание: История жизни Джалила начинается во время Великой Отечественной войны и заканчивается в семидесятых годах ХХ века. Это история азербайджанской семьи, история взаимоотношений двух братьев, трагическая в своей неразрешимости, которая и приводит в финале к смерти героя Это история о трагедии человека, которому не дана возможность понять ближнего, ближнего в самом высоком понимании этого слова, потому, что искренне любил Джалил своего младшего брата Симурга, и не было для него человека роднее. Непонимание этого, правильнее было бы сказать, нежелание понять приводит к разрушению целого мира. того самого мира, который строил Джалил долгие годы в соответствии со своими принципами и законами своих предков.

Качество: SATRip
Формат: AVI
Видео кодек: XviD
Аудио кодек: MP3
Видео: 720x320 (2.25:1), 25 fps, XviD MPEG-4 ~2048 kbps avg, 0.35 bit/pixel
Аудио#1: 48 kHz, MPEG Layer 3, 2 ch, ~192.00 kbps avg

General
Complete name I.ne.bylo.luchsche.brata.avi
Format : AVI
Format/Info : Audio Video Interleave
File size : 1.37 GiB
Duration : 1h 26mn
Overall bit rate : 2 250 Kbps
Writing application : VirtualDubMod 1.5.4.1 (build 2178/release)
Writing library : VirtualDubMod build 2178/release

Video
ID : 0
Format : MPEG-4 Visual
Format profile : Advanced Simple@L5
Format settings, BVOP : No
Format settings, QPel : No
Format settings, GMC : No warppoints
Format settings, Matrix : Custom
Codec ID : XVID
Codec ID/Hint : XviD
Duration : 1h 26mn
Bit rate : 2 051 Kbps
Width : 720 pixels
Height : 320 pixels
Display aspect ratio : 2.25:1
Frame rate : 25.000 fps
Color space : YUV
Chroma subsampling : 4:2:0
Bit depth : 8 bits
Scan type : Progressive
Compression mode : Lossy
Bits/(Pixel*Frame) : 0.356
Stream size : 1.25 GiB (91%)
Writing library : XviD 64

Audio
ID : 1
Format : MPEG Audio
Format version : Version 1
Format profile : Layer 3
Mode : Joint stereo
Mode extension : MS Stereo
Codec ID : 55
Codec ID/Hint : MP3
Duration : 1h 26mn
Bit rate mode : Constant
Bit rate : 192 Kbps
Channel(s) : 2 channels
Sampling rate : 48.0 KHz
Compression mode : Lossy
Stream size : 119 MiB (9%)
Alignment : Aligned on interleaves
Interleave, duration : 80 ms (2.00 video frames)
Interleave, preload duration : 504 ms
Writing library : LAME3.97
Encoding settings : -m j -V 4 -q 2 -lowpass 18.6 -b 192

pb.wtf



Скачать И не было лучше брата через торрент https://pic.kartinco.top/images/1/zcbv7ma4nb.jpg Скачать фильм И не было лучше брата через торрент бесплантно в хорошем качестве Описание: История жизни Джалила начинается во время Великой Отечественной войны и заканчивается в семидесятых годах ХХ века. Это история ... 10 10 1
Info! Золотая раздача, скачанное не засчитывается.
Торрент: Зарегистрирован [2012-10-21 13:27] · скачан: 36 раз
Статус: √ проверено
Размер: 1.37 GB
Как cкачать? Как скачать И не было лучше брата через торрент | UTorrent

28-11-2019 20:33  

Отключить всю рекламу на сайте

    Дорогой пользователь! Огромная просьба, поблагодарите релизера, оцените раздачу и оставьте свои комментарий, если Вы скачали И не было лучше брата через торрент бесплатно! Внесите свою лепту в развитие PiratBit!
    Комментировать посты могут только пользователи прошедшие не сложную регистрацию
    Показать сообщения:    

    И не было лучше брата через торрент
    Скачать бесплатно И не было лучше брата
    И не было лучше брата скачать торрент
    И не было лучше брата смотреть онлайн
    Cкачать фильм И не было лучше брата бесплатно
    И не было лучше брата скачать торрент в хорошем качестве
    И не было лучше брата смотреть онлайн бесплатно в хорошем качестве


    Вы не можете начинать темы
    Вы не можете отвечать на сообщения
    Вы не можете редактировать свои сообщения
    Вы не можете удалять свои сообщения
    Вы не можете голосовать в опросах
    Вы не можете прикреплять файлы к сообщениям
    Вы можете скачивать файлы