1 сезон

3 сезон

iTunes

1

iTunes

MVO

iTunes

13

1 сезон

RePack

30

Deluxe

pack

Лицензия

ВАЖНО

ИГРА 18+

pack

RePack

MK11

RePack

jed

RePack

fifa19

RePack

RDR2

RePack

NEED FOR SPEED™ PAYBACK

4 сезон

9 сезон

Бесстыжие 9 сезон

Все сериалы

все сериалы на PB.wtf

RePack

FAR CRY 5

Anonymous, добрый вечер, мы катастрофически не успеваем собрать деньги на оплату серверов, помогите нам пожалуйста 5,10,15р., для нас важна любая помощь . В качестве благодарности мы отключим Вам всю рекламу на сайте (укажите свой ник в строку Ваше имя)!

×
  
Magnet ссылка

Новые Робинзоны / The New Swiss Family Robinson (Стюарт Рэффил) [1998 г., приключения, семейный, DVD9 (CUSTOM)] MVO (СТС, ЕА) + Original pb.wtf

Новые Робинзоны через торрент pb.wtf

Размер: 5.4 GB | Добавлен: 8 лет 9 мес. назад | Торрент скачан:15 раз
Скачать  

22-10-2012 08:50 Новые Робинзоны Скачать торрент  

Новые Робинзоны / The New Swiss Family Robinson

Год выпуска: 1998
Страна: США
Жанр: приключения, семейный
Продолжительность: 01:37:51
Перевод: Профессиональный многоголосый(закадровый)
Тип релиза: Пиратка
Субтитры: нет

Режиссер: Стюарт Рэффил
Продюссер: Патриция Т. Грин, Дайан Кирмэн, Фернандо Селиз
Сценарий: Стюарт Рэффил, Йохан Дэвид Уайсс

Премьера в мире: 8 июля 1998



В ролях: Джейн Сеймур / Jane Seymour, Дэвид Кэррадайн / David Carradine, Джеймс Кич / James Keach, Джон Мэллори Эшер / John Mallory Asher, Блейк Бэшофф / Blake Bashoff, Джэми Рени Смит / Jamie Renee Smith, Юми Ивама / Yumi Iwama

Описание: Джек Робинзон решает осуществить мечту всей своей жизни — совершить морской круиз в Австралию. Он покупает у своего знакомого Шелдона парусную яхту «Альбатрос» и вместе с женой и тремя детьми отправляется в путешествие. Но в открытом море на Робинзонов внезапно нападают пираты.
Начинается настоящий морской бой, и преследуемая пиратами яхта терпит крушение на необитаемом тропическом острове.

Качество: DVD9 CUSTOM
Формат: DVD Video
Видео кодек: MPEG2
Аудио кодек: AC3
Видео: MPEG 2, 720x576 (4:3), 25.000 fps, 8 000 Kbps (0.694 bit/pixel)
Аудио#1: AC-3, 48.0 KHz, 2 ch, 192 Kbps, CBR (Eng)
Аудио#2: AC-3, 48.0 KHz, 2 ch, 192 Kbps, CBR (MVO СТС)
Аудио#3: AC-3, 48.0 KHz, 2 ch, 192 Kbps, CBR (MVO ЕА)
скриншот   скриншот   скриншот   скриншот  
скриншот   скриншот   скриншот   скриншот  
Общее
Полное имя : F:PC ShareНовые робинзоныVTS_01_1.VOB
Формат : MPEG-PS
Размер файла : 1024 Мбайт
Продолжительность : 18 м.
Режим общего битрейта : Переменный
Общий поток : 7852 Кбит/сек

Видео
Идентификатор : 224 (0xE0)
Формат : MPEG Video
Версия формата : Version 2
Профиль формата : Main@Main
Параметр BVOP формата : Да
Параметр матрицы формата : Выборочная
Параметр GOP формата : M=3, N=15
Продолжительность : 18 м.
Вид битрейта : Переменный
Битрейт : 7120 Кбит/сек
Максимальный битрейт : 8000 Кбит/сек
Ширина : 720 пикселей
Высота : 576 пикселей
Соотношение сторон : 4:3
Частота кадров : 25,000 кадров/сек
Стандарт вещания : PAL
Цветовое пространство : YUV
Субдискретизация насыщенности : 4:2:0
Битовая глубина : 8 бит
Тип развёртки : Чересстрочная
Порядок развёртки : Верхнее поле первое
Метод сжатия : С потерями
Бит/(Пиксели*Кадры) : 0.687
Размер потока : 929 Мбайт (91%)

Аудио #1
Идентификатор : 189 (0xBD)-128 (0x80)
Формат : AC-3
Формат/Информация : Audio Coding 3
Расширение режима : CM (complete main)
Параметр Endianness формата : Big
Режим смешивания : DVD-Video
Продолжительность : 18 м.
Вид битрейта : Постоянный
Битрейт : 192 Кбит/сек
Каналы : 2 канала
Расположение каналов : Front: L R
Частота : 48,0 КГц
Битовая глубина : 16 бит
Метод сжатия : С потерями
Задержка видео : -80 мс.
Размер потока : 25,0 Мбайт (2%)

Аудио #2
Идентификатор : 189 (0xBD)-129 (0x81)
Формат : AC-3
Формат/Информация : Audio Coding 3
Расширение режима : CM (complete main)
Параметр Endianness формата : Big
Режим смешивания : DVD-Video
Продолжительность : 18 м.
Вид битрейта : Постоянный
Битрейт : 192 Кбит/сек
Каналы : 2 канала
Расположение каналов : Front: L R
Частота : 48,0 КГц
Битовая глубина : 16 бит
Метод сжатия : С потерями
Задержка видео : -80 мс.
Размер потока : 25,0 Мбайт (2%)

Аудио #3
Идентификатор : 189 (0xBD)-130 (0x82)
Формат : AC-3
Формат/Информация : Audio Coding 3
Расширение режима : CM (complete main)
Параметр Endianness формата : Big
Режим смешивания : DVD-Video
Продолжительность : 18 м.
Вид битрейта : Постоянный
Битрейт : 192 Кбит/сек
Каналы : 2 канала
Расположение каналов : Front: L R
Частота : 48,0 КГц
Битовая глубина : 16 бит
Метод сжатия : С потерями
Задержка видео : -80 мс.
Размер потока : 25,0 Мбайт (2%)

Меню
Title: Новые робинзоны
Size: 5.40 Gb ( 5 666 568,00 KBytes ) - DVD-9
Enabled regions: 1, 2, 3, 4, 5, 6, 7, 8

VTS_01 :
Play Length: 01:37:51
Video: PAL 4:3 (720x576) VBR
Audio:
English (Dolby AC3, 2 ch)
Russian (Dolby AC3, 2 ch)
Russian (Dolby AC3, 2 ch)

* Menus Information *

VIDEO_TS Menu
Video:
PAL 4:3 (720x576) VBR
English Language Unit :
Title Menu

VTS_01 Menu
Video:
PAL 4:3 (720x576) VBR
English Language Unit :
Root Menu
pb.wtf



Скачать Новые Робинзоны через торрент http://i9.fastpic.ru/big/2010/0906/3f/836ab34e11626e428ff74626d3864c3f.jpg Скачать фильм Новые Робинзоны через торрент бесплантно в хорошем качестве Описание: Джек Робинзон решает осуществить мечту всей своей жизни — совершить морской круиз в Австралию. Он покупает у своего знакомого ... 10 10 3
Info! Золотая раздача, скачанное не засчитывается.
Торрент: Зарегистрирован [2012-10-22 08:50] · скачан: 15 раз
Статус: √ проверено
Размер: 5.4 GB
Как cкачать? Как скачать Новые Робинзоны через торрент | UTorrent



Последний раз редактировалось: Артронах (2012-10-22 18:13), всего редактировалось 3 раз(а)

28-11-2019 20:33  

Отключить всю рекламу на сайте

22-10-2012 09:02 Новые Робинзоны Скачать торрент  

22-10-2012 10:48 Новые Робинзоны Скачать торрент  

Артронах
Это не DVD5, а кастомный DVD9
Дополнительные требования к оформлению релизов DVD
Для изменения статуса раздачи, после исправления уведомить в со ссылкой на раздачуpb.wtf



22-10-2012 20:24 Новые Робинзоны Скачать торрент  

Поставил "проверено", а то меня уже "утомила" "переписка"..... скачаю и сам до оформлю..... будет служить тебе в качестве наглядного примера...pb.wtf



    Дорогой пользователь! Огромная просьба, поблагодарите релизера, оцените раздачу и оставьте свои комментарий, если Вы скачали Новые Робинзоны через торрент бесплатно! Внесите свою лепту в развитие PiratBit!
    Комментировать посты могут только пользователи прошедшие не сложную регистрацию
    Показать сообщения:    

    Новые Робинзоны через торрент
    Скачать бесплатно Новые Робинзоны
    Новые Робинзоны скачать торрент
    Новые Робинзоны смотреть онлайн
    Cкачать фильм Новые Робинзоны бесплатно
    Новые Робинзоны скачать торрент в хорошем качестве
    Новые Робинзоны смотреть онлайн бесплатно в хорошем качестве


    Вы не можете начинать темы
    Вы не можете отвечать на сообщения
    Вы не можете редактировать свои сообщения
    Вы не можете удалять свои сообщения
    Вы не можете голосовать в опросах
    Вы не можете прикреплять файлы к сообщениям
    Вы можете скачивать файлы