Мега распродажа FORZA HORIZON 4 ULTIMATE+ВСЕ DLC+ОНЛАЙН всего за 499р. 349 руб. (супер цена). Внимание количество ограничено!!!

iTunes

1+1

iTunes

мы

iTunes

1

iTunes

Чернобыль

1 сезон

Ральф против интернета

Лицензия

ПШазам

Лицензия

Игра престолов

Лицензия

30
pack

ВАЖНО

!!Акция!!

Alien_RageХит недели

RePack

Resident Evil 21

ИГРА 18+

pack

RePack

Metro:Exodus

!!Акция!!

Alien_Rage

RePack

fifa19

RePack

Assassins Creed: Odyssey

RePack

NEED FOR SPEED™ PAYBACK

3 сезон

9 сезон

Бесстыжие 9 сезон

Все сериалы

все сериалы на PB.wtf

RePack

FAR CRY 5
Ребята, катастрофически не хватает 7730р. для оплаты серверов за ИЮЛЬ (всвязи с блокировками трафик упал в 3 раза), 1-2р., выручайте.
  

Доберман / Dobermann (Ян Кунен) [1997 г., триллер, драма, криминал, HDRip, MVO + Оригинал] pb.wtf

Доберман через торрент pb.wtf

Размер: 2.02 GB | Добавлен: 6 лет 9 мес. назад | Торрент скачан:304 раза
Скачать  

23-10-2012 07:29 Доберман Скачать торрент  

Доберман / Dobermann : 1997
: Франция
: триллер, драма, криминал
: 01:43:06
: Профессиональный многоголосый + Оригинал

: Ян Кунен


Мировой рейтинг IMDB 6.50 (10 098)


: Чеки Карио, Венсан Кассель, Моника Беллуччи, Антуан Баслер, Доминик Беттенфельд, Паскаль Демолон, Марк Дюре, Ромен Дюри, Франсуа Леванталь, Иван Мерат-Барбофф

: Герою фильма уже в день крестин один из друзей отца дарит Магнум-357. Мальчик вырос и стал супернаглым и дерзким грабителем по кличке Доберман. 357-й магнум заменили самые современные виды огнестрельного оружия, включая даже небольшие ракеты, которыми можно стрелять, навинчивая их на ствол пистолета.Вместе с ним всегда его глухая подруга, спокойно красящая ногти во время ограбления инкассаторов. Все члены банды — еще те типажи! Ловит же его жестокий полицейский рядом с которым Грязный Гарри — просто бойскаут. Он одержимо хочет поймать или убить Добермана и для достижения своей цели готов пойти на все и даже преступить закон.

: HDRip
: MKV
: H.264
: AC3
: 720 x 304(2,35:1), 24fps, AVC MPEG-4 (H.264), ~2079 kbps avg,0.396 bit/pixel
#1: русский 48 kHz, AC3 Dolby Digital, 3/2 (L,C,R,l,r) + LFE ch, ~384 kbps avg Профессиональный многоголосый
#2: французкий 48 kHz, AC3 Dolby Digital, 3/2 (L,C,R,l,r) + LFE ch, ~384 kbps avg Оригинал
Релиз от:





Общее
Уникальный идентификатор : 215443727926803618543842655655407923399 (0xA214F3E3C8D14097833A2C3F0EEC30C7)
Полное имя : E:ТоррентыPiratbitDoberman.mkv
Формат : Matroska
Версия формата : Version 2
Размер файла : 2,02 Гбайт
Продолжительность : 1 ч. 43 м.
Общий поток : 2809 Кбит/сек
Дата кодирования : UTC 2012-10-22 15:01:32
Программа кодирования : mkvmerge v4.4.0 ('Die Wiederkehr') сборка от Oct 31 2010 21:52:48
Библиотека кодирования : libebml v1.0.0 + libmatroska v1.0.0

Видео
Идентификатор : 1
Формат : AVC
Формат/Информация : Advanced Video Codec
Профиль формата : High@L4.1
Параметр CABAC формата : Да
Параметр ReFrames формата : 8 кадров
Режим смешивания : Header stripping
Идентификатор кодека : V_MPEG4/ISO/AVC
Продолжительность : 1 ч. 43 м.
Битрейт : 2079 Кбит/сек
Ширина : 720 пикселей
Высота : 304 пикселя
Соотношение сторон : 2,35:1
Частота кадров : 24,000 кадра/сек
Цветовое пространство : YUV
Субдискретизация насыщенности : 4:2:0
Битовая глубина : 8 бит
Тип развёртки : Прогрессивная
Бит/(Пиксели*Кадры) : 0.396
Размер потока : 1,43 Гбайт (71%)
Библиотека кодирования : x264 core 125 r2200 999b753
Настройки программы : cabac=1 / ref=8 / deblock=1:0:0 / analyse=0x3:0x113 / me=hex / subme=7 / psy=1 / psy_rd=1.00:0.00 / mixed_ref=1 / me_range=16 / chroma_me=1 / trellis=1 / 8x8dct=1 / cqm=0 / deadzone=21,11 / fast_pskip=1 / chroma_qp_offset=-2 / threads=6 / lookahead_threads=1 / sliced_threads=0 / nr=0 / decimate=1 / interlaced=0 / bluray_compat=0 / constrained_intra=0 / bframes=4 / b_pyramid=2 / b_adapt=1 / b_bias=0 / direct=1 / weightb=1 / open_gop=0 / weightp=2 / keyint=250 / keyint_min=23 / scenecut=40 / intra_refresh=0 / rc_lookahead=40 / rc=abr / mbtree=1 / bitrate=2079 / ratetol=1.0 / qcomp=0.60 / qpmin=0 / qpmax=69 / qpstep=4 / ip_ratio=1.40 / aq=1:1.00
Default : Да
Forced : Нет

Аудио #1
Идентификатор : 2
Формат : AC-3
Формат/Информация : Audio Coding 3
Расширение режима : CM (complete main)
Параметр Endianness формата : Big
Режим смешивания : Header stripping
Идентификатор кодека : A_AC3
Продолжительность : 1 ч. 43 м.
Вид битрейта : Постоянный
Битрейт : 384 Кбит/сек
Каналы : 6 каналов
Расположение каналов : Front: L C R, Side: L R, LFE
Частота : 48,0 КГц
Битовая глубина : 16 бит
Метод сжатия : С потерями
Размер потока : 283 Мбайт (14%)
Язык : Russian
Default : Да
Forced : Нет

Аудио #2
Идентификатор : 3
Формат : AC-3
Формат/Информация : Audio Coding 3
Расширение режима : CM (complete main)
Параметр Endianness формата : Big
Режим смешивания : Header stripping
Идентификатор кодека : A_AC3
Продолжительность : 1 ч. 43 м.
Вид битрейта : Постоянный
Битрейт : 384 Кбит/сек
Каналы : 6 каналов
Расположение каналов : Front: L C R, Side: L R, LFE
Частота : 48,0 КГц
Битовая глубина : 16 бит
Метод сжатия : С потерями
Размер потока : 283 Мбайт (14%)
Язык : French
Default : Нет
Forced : Нет

pb.wtf



Скачать Доберман через торрент http://pic.kartinco.top/images/1/4pyjnm99oc.png Скачать фильм Доберман через торрент бесплантно в хорошем качестве Доберман / Dobermann : 1997 : Франция : триллер, драма, криминал : 01:43:06 : Профессиональный + Оригинал ... 10 10 10
Info! Золотая раздача, скачанное не засчитывается.
Торрент: Зарегистрирован [2012-10-23 07:29] · скачан: 304 раз
Статус: √ проверено
Размер: 2.02 GB
Как cкачать? Как скачать Доберман через торрент | qTorrent

% Раздел Тема Автор DL S | L
Фильмы [HD 720p, 1080p] (Хороший звук DUB, MVO) [ 3.61 GB ] Доберман / Dobermann [1997 BDRip 720p. многоголосый] Wollishofen Скачать
1 | 0
Фильмы до 2000 г. [ 1.78 GB ] Доберман / Dobermann [1997 HDRip] [VO] ) + [AVO] killermax2013 Скачать
1 | 0
Фильмы [HD 720p, 1080p] (Хороший звук DUB, MVO) [ 10.16 GB ] Доберман / Dobermann [1997 BDRip 1080pAVO+MVO +Original Fr+ SUB RusEng ] Assasinca Скачать
1 | 0
Фильмы до 2000 г. [ 747 MB ] Доберман / Dobermann [1997 HDRip] azagoth_666 Скачать
1 | 0
Фильмы до 2000 г. [ 1.46 GB ] Доберман / Dobermann [1997 BDRip] feldeger Скачать
1 | 0
Фильмы до 2000 г. [ 2.5 GB ] Доберман / Dobermann [1997 DVDRip] war22200 Скачать
1 | 0


>> Регистрируемся здесь <<






Отзывы и комментарии о схеме читаем и пишем здесь: ---> Отзывы и комментарии о схеме

Новые благодарочки в телеграм довольных пользователей:
скриншот   скриншот   скриншот   скриншот   скриншот

23-10-2012 07:36 Доберман Скачать торрент  

pb.wtf



23-10-2012 07:54 Доберман Скачать торрент  

огромное спасибо , давно искал в норм качествеpb.wtf



23-10-2012 12:59 Доберман Скачать торрент  

Фильм шикарный.pb.wtf



20-08-2013 15:31 Доберман Скачать торрент  

Почти до дефолта, спасибо .pb.wtf



    Дорогой пользователь! Огромная просьба, поблагодарите релизера, оцените раздачу и оставьте свои комментарий, если Вы скачали Доберман через торрент бесплатно! Внесите свою лепту в развитие PiratBit!
    Комментировать посты могут только пользователи прошедшие не сложную регистрацию
    Показать сообщения:    

    Доберман через торрент
    Скачать бесплатно Доберман
    Доберман скачать торрент
    Доберман смотреть онлайн
    Cкачать фильм Доберман бесплатно
    Доберман скачать торрент в хорошем качестве
    Доберман смотреть онлайн бесплатно в хорошем качестве


    Вы не можете начинать темы
    Вы не можете отвечать на сообщения
    Вы не можете редактировать свои сообщения
    Вы не можете удалять свои сообщения
    Вы не можете голосовать в опросах
    Вы не можете прикреплять файлы к сообщениям
    Вы можете скачивать файлы