Ссылка на приватное зеркало нашего сайта всего за 1$. Внимание количество ограничено!!!

2 сезон

iTunes

1 сезон

1

2 сезон

2 сезон

iTunes

1 сезон

RePack

30

Ultimate

ВАЖНО

ИГРА 18+

pack

RePack

MK11
pack

Забери бонус

RePack

jed

!!Акция!!

Alien_Rage

RePack

fifa19

RePack

Assassins Creed: Odyssey

RePack

NEED FOR SPEED™ PAYBACK

4 сезон

9 сезон

Бесстыжие 9 сезон

Все сериалы

все сериалы на PB.wtf

RePack

FAR CRY 5
  

Судный день / The Day (Дуглас Арниокоски) [2011 г., фантастика, триллер, драма, Blu-Ray Remux (1080p), MVO] pb.wtf

Судный день через торрент pb.wtf

Размер: 15.56 GB | Добавлен: 8 лет 1 мес. назад | Торрент скачан:180 раз
Скачать  

23-10-2012 09:11 Судный день Скачать торрент  

Судный день / The Day
Год выпуска: 2011
Страна: США
Жанр: фантастика, триллер, драма
Продолжительность: 01:30:00
Перевод: Профессиональный многоголосый
Субтитры: Русские
Режиссер: Дуглас Арниокоски
Продюссер: Гай Данелла, Дуглас Арниокоски, Роберт Мензес
Сценарий: Люк Пассмор
Мировой рейтинг IMDB 6.20 (439)

В ролях: Шон Эшмор, Эшли Белл, Кори Хардрикт, Доминик Монахэн, Шаннин Соссамон, Майкл Эклунд, Брайана Барнс, Кэссиди Верро, София Эванюк, Роберт Болдуин
Описание: После вселенской катастрофы Земля превратилась в выжженную пустыню. По бескрайним дорогам, кишащим бандитами, враждующими между собой за еду, странствуют пятеро. Надеясь найти покой, они останавливаются в доме, который легко превращается в ловушку. Сможет ли кто-то выйти живым?
Качество: Blu-Ray Remux (1080p)
Формат: MKV
Видео кодек: H.264x
Аудио кодек: AC3,DTS
Видео: AVC at 20,5 Мбит/сек : 1920 x 1080 (1.778) at 24.000 fps
Аудио#1: DTS at 1561 Кбит/сек / 1510 Кбит/сек : 6 каналов, 48,0 КГц Language : Русский
Аудио#2: AC-3 at 640 Кбит/сек : 6 каналов, 48,0 КГц Language: Русский
Аудио#3: DTS at 1561 Кбит/сек / 1510 Кбит/сек : 6 каналов, 48,0 КГц Language: английский

Общее
Уникальный идентификатор : 187547440057256739585620386823705090892 (0x8D1852B55E01DE9DBEE34E1F4DAA5B4C)
Полное имя : C:UsersСлавонDesktopНовая папкаThe.Day.2012.D.BDRemux(1080p).mkv
Формат : Matroska
Версия формата : Version 2
Размер файла : 15,6 Гбайт
Продолжительность : 1 ч. 30 м.
Режим общего битрейта : Переменный
Общий поток : 24,8 Мбит/сек
Название фильма : R.G.Goliaf
Дата кодирования : UTC 2012-10-22 16:29:35
Программа кодирования : mkvmerge v5.8.0 ('No Sleep / Pillow') built on Sep 2 2012 15:37:04
Библиотека кодирования : libebml v1.2.3 + libmatroska v1.3.0

Видео
Идентификатор : 1
Формат : AVC
Формат/Информация : Advanced Video Codec
Профиль формата : High@L4.1
Параметр CABAC формата : Да
Параметр ReFrames формата : 4 кадра
Параметр GOP формата : M=3, N=18
Идентификатор кодека : V_MPEG4/ISO/AVC
Продолжительность : 1 ч. 30 м.
Вид битрейта : Переменный
Битрейт : 20,5 Мбит/сек
Максимальный битрейт : 25,0 Мбит/сек
Ширина : 1920 пикселей
Высота : 1080 пикселей
Соотношение сторон : 16:9
Режим частоты кадров : Постоянный
Частота кадров : 24,000 кадра/сек
Стандарт вещания : PAL
Цветовое пространство : YUV
Субдискретизация насыщенности : 4:2:0
Битовая глубина : 8 бит
Тип развёртки : Прогрессивная
Бит/(Пиксели*Кадры) : 0.412
Размер потока : 12,9 Гбайт (83%)
Язык : English
Default : Да
Forced : Нет
Основные цвета : BT.709
Характеристики трансфера : BT.709
Коэффициенты матрицы : BT.709

Аудио #1
Идентификатор : 2
Формат : DTS
Формат/Информация : Digital Theater Systems
Профиль формата : MA / Core
Идентификатор кодека : A_DTS
Продолжительность : 1 ч. 30 м.
Вид битрейта : Переменный
Битрейт : 1561 Кбит/сек / 1510 Кбит/сек
Каналы : 6 каналов
Расположение каналов : Front: L C R, Side: L R, LFE
Частота : 48,0 КГц
Битовая глубина : 16 бит
Метод сжатия : Без потерь / Lossy
Заголовок : DTS-HD Master Audio 5.1 / 48 kHz / 2055 kbps / 16-bit (DTS Core: 5.1 / 48 kHz / 1509 kbps / 16-bit) - Дубляж, Blu-ray
Язык : Russian
Default : Да
Forced : Нет

Аудио #2
Идентификатор : 3
Формат : AC-3
Формат/Информация : Audio Coding 3
Расширение режима : CM (complete main)
Параметр Endianness формата : Big
Идентификатор кодека : A_AC3
Продолжительность : 1 ч. 30 м.
Вид битрейта : Постоянный
Битрейт : 640 Кбит/сек
Каналы : 6 каналов
Расположение каналов : Front: L C R, Side: L R, LFE
Частота : 48,0 КГц
Битовая глубина : 16 бит
Метод сжатия : С потерями
Размер потока : 412 Мбайт (3%)
Заголовок : DD 5.1 @ 640 kbps - Дубляж
Язык : Russian
Default : Нет
Forced : Нет

Аудио #3
Идентификатор : 4
Формат : DTS
Формат/Информация : Digital Theater Systems
Профиль формата : MA / Core
Идентификатор кодека : A_DTS
Продолжительность : 1 ч. 30 м.
Вид битрейта : Переменный
Битрейт : 1561 Кбит/сек / 1510 Кбит/сек
Каналы : 6 каналов
Расположение каналов : Front: L C R, Side: L R, LFE
Частота : 48,0 КГц
Битовая глубина : 16 бит
Метод сжатия : Без потерь / Lossy
Заголовок : 5.1 / 48 kHz / 2053 kbps / 16-bit (DTS Core: 5.1 / 48 kHz / 1509 kbps / 16-bit) - Оригинал
Язык : English
Default : Нет
Forced : Нет

Текст
Идентификатор : 5
Формат : PGS
Режим смешивания : zlib
Идентификатор кодека : S_HDMV/PGS
Идентификатор кодека/Информация : The same subtitle format used on BDs/HD-DVDs
Язык : Russian
Default : Нет
Forced : Нет

Меню
00:00:00.000 : ru:
00:06:26.500 : ru:
00:11:35.958 : ru:
00:18:30.666 : ru:
00:25:32.333 : ru:
00:31:52.166 : ru:
00:40:28.000 : ru:
00:54:47.750 : ru:
00:58:57.083 : ru:
01:04:46.541 : ru:
01:11:27.916 : ru:
01:20:19.375 : ru:

pb.wtf



Скачать Судный день через торрент http://i45.fastpic.ru/big/2012/1023/f2/1cc51bc84b13981ef2ed0c577e8149f2.png Скачать фильм Судный день через торрент бесплантно в хорошем качестве Описание: После вселенской катастрофы Земля превратилась в выжженную пустыню. По бескрайним дорогам, кишащим бандитами, враждующими между ... 5 10 1
Info! Золотая раздача, скачанное не засчитывается.
Торрент: Зарегистрирован [2012-10-23 09:11] · скачан: 180 раз
Статус: √ проверено
Размер: 15.56 GB
Как cкачать? Как скачать Судный день через торрент | qTorrent

% Раздел Тема Автор DL S | L
BBC [ 937 MB ] 9/11. Судный день Америки / 9/11: The Day that Changed the World [2011 документальный катастрофа история трагедия SATRip] MVO Assasinca Скачать
1 | 0
Фильмы [HD 720p, 1080p] (Хороший звук DUB, MVO) [ 7.55 GB ] Судный день / The Day [2011 BDRip 720p MVO лицензия] Ke$h@ Скачать
1 | 0
Фильмы 2011 [ 1.46 GB ] Судный день / The Day [2011 HDRip MVO лицензия] oleg8 Скачать
1 | 0
Фильмы 2011 [ 1.09 GB ] Судный день / The Day [2011 HDRip-AVC-Hi10P] MVO Eng Sub serg7628 Скачать
1 | 0
Фильмы 2011 [ 1.66 GB ] Судный день / The Day [2011 BDRip-AVC] MVO + Original + Sub potroks Скачать
1 | 0

28-11-2019 20:33  

Отключить всю рекламу на сайте

25-10-2012 05:24 Судный день Скачать торрент  

полное барахло,судя по фильму - бюджет не более 10000$? МОЖЕТ 10239$pb.wtf



    Дорогой пользователь! Огромная просьба, поблагодарите релизера, оцените раздачу и оставьте свои комментарий, если Вы скачали Судный день через торрент бесплатно! Внесите свою лепту в развитие PiratBit!
    Комментировать посты могут только пользователи прошедшие не сложную регистрацию
    Показать сообщения:    

    Судный день через торрент
    Скачать бесплатно Судный день
    Судный день скачать торрент
    Судный день смотреть онлайн
    Cкачать фильм Судный день бесплатно
    Судный день скачать торрент в хорошем качестве
    Судный день смотреть онлайн бесплатно в хорошем качестве


    Вы не можете начинать темы
    Вы не можете отвечать на сообщения
    Вы не можете редактировать свои сообщения
    Вы не можете удалять свои сообщения
    Вы не можете голосовать в опросах
    Вы не можете прикреплять файлы к сообщениям
    Вы можете скачивать файлы