Ссылка на приватное зеркало нашего сайта всего за 1$. Внимание количество ограничено!!!

2 сезон

iTunes

1 сезон

1

iTunes

iTunes

iTunes

1 сезон

RePack

30

ИГРА 18+

pack

ВАЖНО

!!Акция!!

Alien_RageХит недели

RePack

MK11
pack

Забери бонус

RePack

jed

!!Акция!!

Alien_Rage

RePack

fifa19

RePack

Assassins Creed: Odyssey

RePack

NEED FOR SPEED™ PAYBACK

4 сезон

9 сезон

Бесстыжие 9 сезон

Все сериалы

все сериалы на PB.wtf

RePack

FAR CRY 5
  

Адский бункер: Черное Солнце [2012 г., ужасы, боевик, BDRip 720p, MVO, лицензия] pb.wtf

Адский бункер: Черное Солнце через торрент pb.wtf

Размер: 4.62 GB | Добавлен: 8 лет назад | Торрент скачан:132 раза
Скачать  

18-10-2012 17:25 Адский бункер: Черное Солнце Скачать торрент  

Год выпуска: 2012
Страна: Великобритания
Жанр: ужасы, боевик
Продолжительность: 01:41:10
Перевод: Профессиональный многоголосый, Лицензия

Режиссер: Стив Баркер
Продюссер: Арабелла Пейдж Крофт, Киран Паркер, Джэми Кармайкл
Сценарий: Стив Баркер, Рэй Брантон

Мировой рейтинг IMDB 4.70 (1 221)


В ролях: Катрин Стэдмен, Ричард Койл, Клайв Расселл, Майкл Бирн, Джулиан Уэдэм, Даниэль Кальтаджироне, Ник Неверн, Пол Бирчард, Дэвид Гант, Элис Да Кунья

Описание: Научные разработки, которые велись немцами во время Второй мировой войны, по созданию бессмертных солдат не прошли даром. Уже в наши дни бойцы НАТО сталкиваются с батальоном зомби-солдат нацистской Германии из числа штурмовиков. Противостоять восставшим мертвецам практически невозможно, но еще более сложная задача стоит перед героями фильма — найти и уничтожить источник воскрешающей армии, грозящей миру Четвёртым Рейхом...

Качество: BDRip 720p
Формат: MKV
Видео кодек: H.26x
Аудио кодек: AC3
Видео: AVC, 1280x534 (2.35:1), 23.976 fps, 4 652 Kbps (0.284 bit/pixel)
Аудио#1: AC-3, 48.0 KHz, 6 ch, 384 Kbps, CBR (Russian)
Аудио#2: DTS, 48.0 KHz, 6 ch, 1 510 Kbps, CBR (English)
Релиз от:



Format : Matroska
Format version : Version 2
File size : 4.62 GiB
Duration : 1h 41mn
Overall bit rate : 6 535 Kbps
Movie name : IRONCLUB
Encoded date : UTC 2012-10-17 17:36:06
Writing application : mkvmerge v4.9.1 ('Ich will') сборка от Jul 11 2011 23:53:15
Writing library : libebml v1.2.1 + libmatroska v1.1.1

Video
ID : 1
Format : AVC
Format/Info : Advanced Video Codec
Format profile : High@L4.1
Format settings, CABAC : Yes
Format settings, ReFrames : 10 frames
Codec ID : V_MPEG4/ISO/AVC
Duration : 1h 41mn
Bit rate : 4 652 Kbps
Width : 1 280 pixels
Height : 534 pixels
Display aspect ratio : 2.40:1
Frame rate mode : Constant
Frame rate : 23.976 fps
Color space : YUV
Chroma subsampling : 4:2:0
Bit depth : 8 bits
Scan type : Progressive
Bits/(Pixel*Frame) : 0.284
Stream size : 3.19 GiB (69%)
Title : Outpost.Black.Sun.2012.BluRay.720p.DTS.x264-CHD
Writing library : x264 core 120 r2146 bcd41db
Encoding settings : cabac=1 / ref=10 / deblock=1:-3:-3 / analyse=0x3:0x113 / me=umh / subme=10 / psy=1 / psy_rd=1.00:0.05 / mixed_ref=1 / me_range=32 / chroma_me=1 / trellis=2 / 8x8dct=1 / cqm=0 / deadzone=21,11 / fast_pskip=0 / chroma_qp_offset=-2 / threads=8 / sliced_threads=0 / nr=0 / decimate=1 / interlaced=0 / bluray_compat=0 / constrained_intra=0 / bframes=5 / b_pyramid=2 / b_adapt=2 / b_bias=0 / direct=3 / weightb=1 / open_gop=0 / weightp=2 / keyint=250 / keyint_min=23 / scenecut=40 / intra_refresh=0 / rc_lookahead=40 / rc=2pass / mbtree=0 / bitrate=4652 / ratetol=1.0 / qcomp=0.70 / qpmin=0 / qpmax=69 / qpstep=4 / cplxblur=20.0 / qblur=0.5 / vbv_maxrate=40000 / vbv_bufsize=30000 / nal_hrd=none / ip_ratio=1.40 / pb_ratio=1.30 / aq=2:1.00
Language : English
Default : No
Forced : No

Audio #1
ID : 2
Format : AC-3
Format/Info : Audio Coding 3
Mode extension : CM (complete main)
Format settings, Endianness : Big
Codec ID : A_AC3
Duration : 1h 41mn
Bit rate mode : Constant
Bit rate : 384 Kbps
Channel(s) : 6 channels
Channel positions : Front: L C R, Side: L R, LFE
Sampling rate : 48.0 KHz
Bit depth : 16 bits
Compression mode : Lossy
Stream size : 278 MiB (6%)
Title : DD 5.1 @ 384 kbps - MVO, R5
Language : Russian
Default : Yes
Forced : Yes

Audio #2
ID : 3
Format : DTS
Format/Info : Digital Theater Systems
Codec ID : A_DTS
Duration : 1h 41mn
Bit rate mode : Constant
Bit rate : 1 510 Kbps
Channel(s) : 6 channels
Channel positions : Front: L C R, Side: L R, LFE
Sampling rate : 48.0 KHz
Bit depth : 24 bits
Compression mode : Lossy
Stream size : 1.07 GiB (23%)
Title : DTS 5.1 @ 1536 kbps
Language : English
Default : No
Forced : No

Text #1
ID : 4
Format : UTF-8
Codec ID : S_TEXT/UTF8
Codec ID/Info : UTF-8 Plain Text
Language : Ukrainian
Default : No
Forced : No

Text #2
ID : 5
Format : UTF-8
Codec ID : S_TEXT/UTF8
Codec ID/Info : UTF-8 Plain Text
Language : English
Default : No
Forced : No

pb.wtf



Скачать Адский бункер: Черное Солнце через торрент http://i45.fastpic.ru/big/2012/1018/e1/ff6b6c0b367a2d09a04da6d1aedd2ae1.jpg Скачать фильм Адский бункер: Черное Солнце [2012 г., ужасы, боевик, BDRip 720p, MVO, лицензия]через торрент бесплантно в хорошем качестве Описание: Научные разработки, которые велись немцами во время Второй мировой войны, по созданию бессмертных солдат не прошли даром. Уже в ... 10 10 2
Info! Золотая раздача, скачанное не засчитывается.
Торрент: Зарегистрирован [2012-10-20 11:43] · скачан: 132 раз
Статус: √ проверено
Размер: 4.62 GB
Как cкачать? Как скачать Адский бункер: Черное Солнце через торрент | qTorrent

% Раздел Тема Автор DL S | L
Фильмы [HD 720p, 1080p] (Хороший звук DUB, MVO) [ 7.75 GB ] Адский бункер: Чёрное Солнце / Outpost: Black Sun [2012 BDRip 1080p от еnvy / NNNB] MVO еnvy Скачать
1 | 0
Фильмы 2012 [ 2.13 GB ] Адский бункер: Черное Солнце / Outpost: Black Sun [2012 BDRip-AVC] MVO [] potroks Скачать
1 | 0
Фильмы 2012 [ 1.46 GB ] Адский бункер: Черное Солнце [2012 HDRip] MVO [ лицензия ] Zclasss Скачать
1 | 0

28-11-2019 20:33  

Отключить всю рекламу на сайте

18-10-2012 19:04 Адский бункер: Черное Солнце Скачать торрент  

Газку бы чуток !!!!pb.wtf



    Дорогой пользователь! Огромная просьба, поблагодарите релизера, оцените раздачу и оставьте свои комментарий, если Вы скачали Адский бункер: Черное Солнце через торрент бесплатно! Внесите свою лепту в развитие PiratBit!
    Комментировать посты могут только пользователи прошедшие не сложную регистрацию
    Показать сообщения:    

    Адский бункер: Черное Солнце через торрент
    Скачать бесплатно Адский бункер: Черное Солнце
    Адский бункер: Черное Солнце скачать торрент
    Адский бункер: Черное Солнце смотреть онлайн
    Cкачать фильм Адский бункер: Черное Солнце бесплатно
    Адский бункер: Черное Солнце скачать торрент в хорошем качестве
    Адский бункер: Черное Солнце смотреть онлайн бесплатно в хорошем качестве


    Вы не можете начинать темы
    Вы не можете отвечать на сообщения
    Вы не можете редактировать свои сообщения
    Вы не можете удалять свои сообщения
    Вы не можете голосовать в опросах
    Вы не можете прикреплять файлы к сообщениям
    Вы можете скачивать файлы