2 сезон

iTunes

MVO

1

2 сезон

iTunes

iTunes

1 сезон

RePack

30

Ultimate

ВАЖНО

ИГРА 18+

pack

RePack

MK11
pack

Легкие деньги

RePack

jed

RePack

fifa19

RePack

RDR2

RePack

NEED FOR SPEED™ PAYBACK

4 сезон

9 сезон

Бесстыжие 9 сезон

Все сериалы

все сериалы на PB.wtf

RePack

FAR CRY 5

Anonymous, добрый день, мы не успеваем собрать деньги на оплату серверов за декабрь и январь, помогите нам пожалуйста в это трудное время. В качестве благодарности мы отключим Вам всю рекламу на сайте (укажите свой ник в строку Ваше имя)!

×
  
Magnet ссылка

Я, робот / I, Robot (Алекс Пройас) [2004 г., фантастика, боевик, триллер, детектив, BDRip 3D 1080p, DUB, лицензия] Горизонтальная анаморфная стереопара pb.wtf

Я, робот через торрент pb.wtf

Размер: 9.88 GB | Добавлен: 8 лет 3 мес. назад | Торрент скачан:796 раз
Скачать  

25-10-2012 01:12 Я, робот Скачать торрент  

Я, робот / I, Robot

Год выпуска: 2004
Страна: США
Жанр: фантастика, боевик, триллер, детектив
Продолжительность: 01:54:34
Перевод: Дубляж, Лицензия

Режиссер: Алекс Пройас
Продюссер: Джон Дэвис, Тофер Дау, Вик Годфри
Сценарий: Джеф Винтар, Акива Голдсман, Айзек Азимов

Мировой рейтинг IMDB 7.00 (195 970)


В ролях: Уилл Смит, Бриджет Мойнэхэн, Алан Тьюдик, Джеймс Кромуэлл, Брюс Гринвуд, Чи МакБрайд, Шайа ЛаБаф, Адриан Рикард, Джерри Вассерман, Фиона Хоган, Станислав Концевич, Светлана Репетина, Максим Сергеев, Игорь Шибанов, Валерий Кухарешин

Описание: Действие фильма происходит в будущем (2035 г.), где роботы являются обычными помощниками человека. Главный герой — полицейский, «не переваривающий» роботов, расследует дело об убийстве, в которое оказывается вовлечен робот.Речь идет о возможном нарушении «Закона о Роботах» (робот никогда не поднимет руки на человека), что, в принципе, невозможно. Ситуация близка к катастрофической: если машины могут нарушать этот закон, то уже ничто не остановит их от захвата контроля над людьми, тем более, что человечество уже давно стало полностью зависимо от роботов...

Доп. информация: Формат 3D: Half SideBySide / Горизонтальная анаморфная стереопара

Качество: BDRip 1080p
Формат: MKV
Видео кодек: H.26x
Аудио кодек: AC3
Видео: AVC, 10,1 Мбит/сек, 1920x1080, 23,976 кадра/сек
Аудио#1: AC3, 448 Кбит/сек, 6 каналов, 48,0 КГц - Русский (Дубляж)
Аудио#2: DTS, 1509 Кбит/сек, 6 каналов, 48,0 КГц - Английский (Оригинал)
Общее
Уникальный идентификатор : 215271107985747904785750074538574982109 (0xA1F3B511D12BEB62B265771C3C77ABDD)
Полное имя : D:xxxI.Robot.2004.1080p.BluRay.3D.H-SBS.DTS.x264-PublicHDi.robot.2004.1080p.bluray.3D.h-sbs.mkv
Формат : Matroska
Версия формата : Version 2
Размер файла : 9,88 Гбайт
Продолжительность : 1 ч. 54 м.
Общий поток : 12,3 Мбит/сек
Дата кодирования : UTC 2012-10-25 00:48:31
Программа кодирования : mkvmerge v5.8.0 ('No Sleep / Pillow') built on Sep 2 2012 15:37:04
Библиотека кодирования : libebml v1.2.3 + libmatroska v1.3.0
Attachment : Yes / Yes

Видео
Идентификатор : 1
Формат : AVC
Формат/Информация : Advanced Video Codec
Профиль формата : High@L4.1
Параметр CABAC формата : Да
Параметр ReFrames формата : 2 кадра
Идентификатор кодека : V_MPEG4/ISO/AVC
Продолжительность : 1 ч. 54 м.
Битрейт : 10,1 Мбит/сек
Ширина : 1920 пикселей
Высота : 1080 пикселей
Соотношение сторон : 16:9
Режим частоты кадров : Постоянный
Частота кадров : 23,976 кадра/сек
Цветовое пространство : YUV
Субдискретизация насыщенности : 4:2:0
Битовая глубина : 8 бит
Тип развёртки : Прогрессивная
Бит/(Пиксели*Кадры) : 0.204
Размер потока : 8,12 Гбайт (82%)
Библиотека кодирования : x264 core
Язык : English
Default : Да
Forced : Нет
Основные цвета : BT.709
Характеристики трансфера : BT.709
Коэффициенты матрицы : BT.709

Аудио #1
Идентификатор : 2
Формат : AC-3
Формат/Информация : Audio Coding 3
Расширение режима : CM (complete main)
Параметр Endianness формата : Big
Идентификатор кодека : A_AC3
Продолжительность : 1 ч. 54 м.
Вид битрейта : Постоянный
Битрейт : 448 Кбит/сек
Каналы : 6 каналов
Расположение каналов : Front: L C R, Side: L R, LFE
Частота : 48,0 КГц
Битовая глубина : 16 бит
Метод сжатия : С потерями
Задержка видео : 500 мс.
Размер потока : 368 Мбайт (4%)
Заголовок : Дублированный
Язык : Russian
Default : Нет
Forced : Нет

Аудио #2
Идентификатор : 3
Формат : DTS
Формат/Информация : Digital Theater Systems
Режим : 16
Параметр Endianness формата : Big
Идентификатор кодека : A_DTS
Продолжительность : 1 ч. 54 м.
Вид битрейта : Постоянный
Битрейт : 1509 Кбит/сек
Каналы : 6 каналов
Расположение каналов : Front: L C R, Side: L R, LFE
Частота : 48,0 КГц
Битовая глубина : 24 бит
Метод сжатия : С потерями
Размер потока : 1,21 Гбайт (12%)
Язык : English
Default : Нет
Forced : Нет

Меню
00:00:00.000 : en:00:00:00.000
00:01:46.940 : en:00:01:46.940
00:03:30.252 : en:00:03:30.252
00:06:18.545 : en:00:06:18.545
00:07:57.519 : en:00:07:57.519
00:10:19.702 : en:00:10:19.702
00:12:11.230 : en:00:12:11.230
00:15:35.309 : en:00:15:35.309
00:17:47.984 : en:00:17:47.984
00:22:51.870 : en:00:22:51.870
00:26:14.031 : en:00:26:14.031
00:26:59.243 : en:00:26:59.243
00:33:23.168 : en:00:33:23.168
00:36:03.578 : en:00:36:03.578
00:41:23.523 : en:00:41:23.523
00:46:07.890 : en:00:46:07.890
00:49:06.026 : en:00:49:06.026
00:52:14.506 : en:00:52:14.506
00:55:22.277 : en:00:55:22.277
00:58:31.717 : en:00:58:31.717
01:00:06.770 : en:01:00:06.770
01:01:08.665 : en:01:01:08.665
01:07:56.114 : en:01:07:56.114
01:08:18.094 : en:01:08:18.094
01:10:24.303 : en:01:10:24.303
01:13:17.226 : en:01:13:17.226
01:16:53.818 : en:01:16:53.818
01:18:39.465 : en:01:18:39.465
01:20:14.226 : en:01:20:14.226
01:21:18.290 : en:01:21:18.290
01:21:57.454 : en:01:21:57.454
01:27:29.536 : en:01:27:29.536
01:28:57.666 : en:01:28:57.666
01:32:59.657 : en:01:32:59.657
01:34:45.138 : en:01:34:45.138
01:38:09.467 : en:01:38:09.467
01:41:10.898 : en:01:41:10.898
01:44:15.416 : en:01:44:15.416
01:45:02.755 : en:01:45:02.755

pb.wtf



Скачать Я, робот через торрент https://pic.kartinco.top/images/1/uxm8puuj2w.jpg Скачать фильм Я, робот через торрент бесплантно в хорошем качестве Описание: Действие фильма происходит в будущем (2035 г.), где роботы являются обычными помощниками человека. Главный герой — полицейский, ... 9.9 10 11
Info! Золотая раздача, скачанное не засчитывается.
Торрент: Зарегистрирован [2012-10-25 01:12] · скачан: 796 раз
Статус: √ проверено
Размер: 9.88 GB
Как cкачать? Как скачать Я, робот через торрент | UTorrent

% Раздел Тема Автор DL S | L
3D Фильмы [ 17.1 GB ] Я робот / I Robot [2004 BDRip 1080p DUB лицензия] Half SideBySide / Горизонтальная анаморфная стереопара Ke$h@ Скачать
1 | 0

28-11-2019 20:33  

Отключить всю рекламу на сайте

25-10-2012 05:29 Я, робот Скачать торрент  

Можно проверять!!! ,я проверил!!!pb.wtf



25-10-2012 08:52 Я, робот Скачать торрент  

думал будет больший ажиотажpb.wtf



25-10-2012 11:47 Я, робот Скачать торрент  

Если бы там после названия стояла цифра "2", то был быpb.wtf



03-11-2012 14:30 Я, робот Скачать торрент  

3д в фильме нетpb.wtf



04-01-2013 14:51 Я, робот Скачать торрент  

Спасибо! надеюсь на телике пойдётpb.wtf



06-01-2013 23:21 Я, робот Скачать торрент  

Скажите а как это смотреть? Надо ли какое нибудь оборудование или тупо смотреть на раздвоенную картинку?pb.wtf



09-01-2013 16:42 Я, робот Скачать торрент  

должен быть семпл (кусок из фильма) на пробуpb.wtf



19-01-2013 03:58 Я, робот Скачать торрент  

Tomded писал(а):

Скажите а как это смотреть? Надо ли какое нибудь оборудование или тупо смотреть на раздвоенную картинку?

1) Нужен плеер или телевизор который сможет эту картинку " соединить " дабы сделать из нее 3D
2) Нужны специальные очки которые будут делать из картинки на телевизоре ( экране ) объемный эффект и тп.

*К примеру телевизор Samsung Smart TV + очки для телика. Закидываешь видео на флешку, подключаешь флешку к телику и смотришь. ( это совсем кратко если )pb.wtf



    Дорогой пользователь! Огромная просьба, поблагодарите релизера, оцените раздачу и оставьте свои комментарий, если Вы скачали Я, робот через торрент бесплатно! Внесите свою лепту в развитие PiratBit!
    Комментировать посты могут только пользователи прошедшие не сложную регистрацию
    Показать сообщения:    

    Я, робот через торрент
    Скачать бесплатно Я, робот
    Я, робот скачать торрент
    Я, робот смотреть онлайн
    Cкачать фильм Я, робот бесплатно
    Я, робот скачать торрент в хорошем качестве
    Я, робот смотреть онлайн бесплатно в хорошем качестве


    Вы не можете начинать темы
    Вы не можете отвечать на сообщения
    Вы не можете редактировать свои сообщения
    Вы не можете удалять свои сообщения
    Вы не можете голосовать в опросах
    Вы не можете прикреплять файлы к сообщениям
    Вы можете скачивать файлы