Ссылка на приватное зеркало нашего сайта всего за 1$. Внимание количество ограничено!!!

2 сезон

iTunes

1 сезон

1

iTunes

iTunes

iTunes

1 сезон

RePack

30

ИГРА 18+

pack

ВАЖНО

!!Акция!!

Alien_RageХит недели

RePack

MK11
pack

Забери бонус

RePack

jed

!!Акция!!

Alien_Rage

RePack

fifa19

RePack

Assassins Creed: Odyssey

RePack

NEED FOR SPEED™ PAYBACK

4 сезон

9 сезон

Бесстыжие 9 сезон

Все сериалы

все сериалы на PB.wtf

RePack

FAR CRY 5
  

Ледниковый период 4: Континентальный дрейф / Ice Age: Continental Drift (Стив Мартино, Майк Трумейер) [2012 г., Мультфильм, комедия, BDRip - AVC, DUB, лицензия] pb.wtf

Ледниковый период 4: Континентальный дрейф через торрент pb.wtf

Размер: 1.45 GB | Добавлен: 8 лет назад | Торрент скачан:2815 раз
Скачать  

25-10-2012 13:04 Ледниковый период 4: Континентальный дрейф Скачать торрент  


Ледниковый период 4: Континентальный дрейф
Год выпуска: 2012
Страна: США / Blue Sky Studios
Жанр: Мультфильм, комедия
Продолжительность: 01:28:42
Перевод: Дубляж, Лицензия

Режиссер: Стив Мартино, Майк Трумейер

В ролях: Рэй Романо, Джон Легуизамо, Куин Латифа, Дэнис Лири, Джош Пек, Питер Динклэйдж, Кеке Палмер, Дженнифер Лопес, Ник Фрост, Азиз Ансари, Джой Бехар, Кристофер Кэмпбелл, Ален Шаба, Эстер Дин, Обри Грэм, Джейсон Фриччион, Джош Гад, Джордж Джейкобс, Ники Минаж, Хезер Моррис, Кунал Найяр, Джеймс Палумбо, Саймон Пегг, Элли Романо, Шонн Уильям Скотт, Мэттью Симмонс, Эдди «Пайолин» Сотело, Патрик Стюарт, Ванда Сайкес, Меган Трумейер, Алан Тьюдик, Крис Уэдж, Ребел Уилсон, Эшли Альберт, Эдита Брыхта, Дэннис Т. Карнеги, Эме Кастл, Джим Конрой, Нола Донкин, Дэн Флаэрти, Мэриев Херингтон, Джейсон Харрис, Сондра Джеймс, Линда Джой, Але

Описание: После приключений под землей прошло семь лет. Случился дрейф континентов. Главные герои мультфильма, отделённые от стада, вынуждены использовать айсберг в качестве плота. Они пересекают океан и попадают в неизвестные им ранее земли с экзотическими животными и пиратами, враждебно настроенными к ним. Скрэту удаётся получить свой жёлудь, но он перемещается в новые для него земли.
Общее
Уникальный идентификатор                 : 241524499421723204149466635166842352991 (0xB5B3ED33F33060E19DCD1FDE0F0BF55F)
Полное имя                               : D:ICE_AGE_4.BDRip.AVC.Rip by Odessit.mkv
Формат                                   : Matroska
Версия формата                           : Version 2
Размер файла                             : 1,45 Гбайт
Продолжительность                        : 1 ч. 28 м.
Общий поток                              : 2343 Кбит/сек
Название фильма                          : ODESSIT
Дата кодирования                         : UTC 2012-10-25 08:41:42
Программа кодирования                    : mkvmerge v5.8.0 ('No Sleep / Pillow') built on Sep  2 2012 15:37:04
Библиотека кодирования                   : libebml v1.2.3 + libmatroska v1.3.0

Видео
Идентификатор                            : 1
Формат                                   : AVC
Формат/Информация                        : Advanced Video Codec
Профиль формата                          : Main@L4.1
Параметр CABAC формата                   : Да
Параметр ReFrames формата                : 4 кадра
Идентификатор кодека                     : V_MPEG4/ISO/AVC
Продолжительность                        : 1 ч. 28 м.
Битрейт                                  : 1899 Кбит/сек
Ширина                                   : 1024 пикселя
Высота                                   : 432 пикселя
Соотношение сторон                       : 2,40:1
Режим частоты кадров                     : Постоянный
Частота кадров                           : 23,976 кадра/сек
Цветовое пространство                    : YUV
Субдискретизация насыщенности            : 4:2:0
Битовая глубина                          : 8 бит
Тип развёртки                            : Прогрессивная
Бит/(Пиксели*Кадры)                      : 0.179
Размер потока                            : 1,14 Гбайт (79%)
Библиотека кодирования                   : x264 core 125 r2200 999b753
Настройки программы                      : cabac=1 / ref=3 / deblock=1:-3:-3 / analyse=0x1:0x111 / me=umh / subme=10 / psy=1 / psy_rd=1.00:0.00 / mixed_ref=1 / me_range=16 / chroma_me=1 / trellis=2 / 8x8dct=0 / cqm=0 / deadzone=21,11 / fast_pskip=1 / chroma_qp_offset=-2 / threads=3 / lookahead_threads=1 / sliced_threads=0 / nr=0 / decimate=1 / interlaced=0 / bluray_compat=0 / constrained_intra=0 / bframes=3 / b_pyramid=2 / b_adapt=2 / b_bias=0 / direct=3 / weightb=1 / open_gop=0 / weightp=2 / keyint=240 / keyint_min=23 / scenecut=40 / intra_refresh=0 / rc_lookahead=40 / rc=2pass / mbtree=1 / bitrate=1899 / ratetol=1.0 / qcomp=0.60 / qpmin=10 / qpmax=51 / qpstep=4 / cplxblur=20.0 / qblur=0.5 / ip_ratio=1.40 / aq=1:1.00
Язык                                     : English
Default                                  : Да
Forced                                   : Нет

Аудио
Идентификатор                            : 2
Формат                                   : AC-3
Формат/Информация                        : Audio Coding 3
Расширение режима                        : CM (complete main)
Параметр Endianness формата              : Big
Идентификатор кодека                     : A_AC3
Продолжительность                        : 1 ч. 28 м.
Вид битрейта                             : Постоянный
Битрейт                                  : 448 Кбит/сек
Каналы                                   : 6 каналов
Расположение каналов                     : Front: L C R, Side: L R, LFE
Частота                                  : 48,0 КГц
Битовая глубина                          : 16 бит
Метод сжатия                             : С потерями
Размер потока                            : 284 Мбайт (19%)
Default                                  : Да
Forced                                   : Нет



Качество: BDRip - AVC
Формат: MKV
Видео кодек: AVC
Аудио кодек: AC3
Видео: MPEG-4 AVC, 1 899 Кбит/с, 1024x432 ,23.976 fps
Аудио#1: Русский (AC3, 6 ch, 448 Кбит/с) (Лицензия)
Релиз от:




Ледниковый период 4: Континентальный дрейф скачать торрент
pb.wtf



Скачать Ледниковый период 4: Континентальный дрейф через торрент http://i44.fastpic.ru/big/2012/1025/a7/76fa66f310ee7e23971332ffa5eab1a7.png Скачать фильм Ледниковый период 4: Континентальный дрейф через торрент бесплантно в хорошем качестве Описание: После приключений под землей прошло семь лет. Случился дрейф континентов. Главные герои мультфильма, отделённые от стада, ... 9.6 10 29
Info! Золотая раздача, скачанное не засчитывается.
Торрент: Зарегистрирован [2012-10-25 13:04] · скачан: 2 815 раз
Статус: √ проверено
Размер: 1.45 GB
Как cкачать? Как скачать Ледниковый период 4: Континентальный дрейф через торрент | qTorrent

% Раздел Тема Автор DL S | L
Приключения, Квесты, Логические [ 890 MB ] Ледниковый период 4: Континентальный дрейф. Арктические Игры / Ice Age: Continental Drift - Arctic Games 2012 [RePack ENG / RU Arcade / Adventure] от R.G. ReCoding Yulikk Скачать
1 | 0
Иностранные мультфильмы [ 1.37 GB ] Ледниковый период 4: Континентальный дрейф / Ice Age: Continental Drift [2012 мультфильм HDRip][ лицензия ] Cталин Скачать
1 | 0
3D Мультфильмы [ 6.18 GB ] Ледниковый период 4: Континентальный дрейф в 3D / Ice Age: Continental Drift in 3D [2012 мультфильм BDRip 1080p DUB лицензия] Anaglyph slaventi-69 Скачать
1 | 0
3D Мультфильмы [ 13.49 GB ] Ледниковый период 4: Континентальный дрейф / Ice Age: Continental Drift [2012 мультфильм BDRip 1080p DUB лицензия] / Вертикальная стереопара serega768 Скачать
1 | 0
Зарубежные Мультфильмы (BDRip 1080p, 720p, Blu-ray, BD-Remux) [ 8.54 GB ] Ледниковый период 4: Континентальный дрейф / Ice Age: Continental Drift [2012 мультфильм BDRip 1080p] DREM Скачать
1 | 0
Иностранные мультфильмы [ 725 MB ] Ледниковый период 4: Континентальный дрейф / Ice Age: Continental Drift [2012 мультфильм BDRip DUB лицензия] / Hi10P jb_alex Скачать
1 | 0
Фильмы 2012 [ 1.09 GB ] Ледниковый период 4: Континентальный дрейф / Ice Age: Continental Drift [2012 мультфильм HDRip-AVC-Hi10P] DUB Ukr Eng Sub serg7628 Скачать
1 | 0


Последний раз редактировалось: VaGaBoNd (2012-11-06 16:22), всего редактировалось 1 раз

28-11-2019 20:33  

Отключить всю рекламу на сайте

26-10-2012 16:00 Ледниковый период 4: Континентальный дрейф Скачать торрент  

качество отличное. спасибоpb.wtf



07-11-2012 19:19 Ледниковый период 4: Континентальный дрейф Скачать торрент  

Большое спасибо за мульт !!!pb.wtf



06-01-2013 18:39 Ледниковый период 4: Континентальный дрейф Скачать торрент  

спасибо. Хороший мультик
pb.wtf



28-01-2013 17:53 Ледниковый период 4: Континентальный дрейф Скачать торрент  

мультик хорош! pb.wtf



    Дорогой пользователь! Огромная просьба, поблагодарите релизера, оцените раздачу и оставьте свои комментарий, если Вы скачали Ледниковый период 4: Континентальный дрейф через торрент бесплатно! Внесите свою лепту в развитие PiratBit!
    Комментировать посты могут только пользователи прошедшие не сложную регистрацию
    Показать сообщения:    

    Ледниковый период 4: Континентальный дрейф через торрент
    Скачать бесплатно Ледниковый период 4: Континентальный дрейф
    Ледниковый период 4: Континентальный дрейф скачать торрент
    Ледниковый период 4: Континентальный дрейф смотреть онлайн
    Cкачать фильм Ледниковый период 4: Континентальный дрейф бесплатно
    Ледниковый период 4: Континентальный дрейф скачать торрент в хорошем качестве
    Ледниковый период 4: Континентальный дрейф смотреть онлайн бесплатно в хорошем качестве


    Вы не можете начинать темы
    Вы не можете отвечать на сообщения
    Вы не можете редактировать свои сообщения
    Вы не можете удалять свои сообщения
    Вы не можете голосовать в опросах
    Вы не можете прикреплять файлы к сообщениям
    Вы можете скачивать файлы