MEGA SALE -50% FORZA HORIZON 4 ULTIMATE+ВСЕ DLC+ОНЛАЙН всего за 599р. 299 руб. (супер цена). Внимание количество ограничено!!!

iTunes

1+1

iTunes

мы

iTunes

1

iTunes

Чернобыль

1 сезон

Ральф против интернета

Лицензия

ПШазам

Лицензия

Игра престолов

Лицензия

30
pack

ВАЖНО

!!Акция!!

Alien_RageХит недели

RePack

Resident Evil 21

ИГРА 18+

pack

RePack

Metro:Exodus

!!Акция!!

Alien_Rage

RePack

fifa19

RePack

Assassins Creed: Odyssey

RePack

NEED FOR SPEED™ PAYBACK

3 сезон

9 сезон

Бесстыжие 9 сезон

Все сериалы

все сериалы на PB.wtf

RePack

FAR CRY 5
Ребята, катастрофически не хватает 7730р. для оплаты серверов за ИЮЛЬ (всвязи с блокировками трафик упал в 3 раза), 1-2р., выручайте.
  

Черный динамит / Black Dynamite (Скотт Сандерс) [2009 г., боевик, комедия, HDRip, DVO] pb.wtf

Черный динамит через торрент pb.wtf

Размер: 1.36 GB | Добавлен: 6 лет 9 мес. назад | Торрент скачан:84 раза
Скачать  

27-10-2012 07:12 Черный динамит Скачать торрент  

Черный динамит / Black Dynamite

Год выпуска: 2009
Страна: США
Жанр: боевик, комедия
Продолжительность: 01:24:14
Перевод: Любительский двухголосый

Режиссер: Скотт Сандерс
Продюссер: Дженни Винер Штейнгарт, Джон Штейнгарт, Джиллиан Апфельбаум
Сценарий: Майкл Джей Уайт, Байрон Миннс, Скотт Сандерс

Премьера в мире: 18 января 2009


Мировой рейтинг IMDB 7.30 (22 036)


В ролях: Майкл Джей Уайт, Обба Бабатунде, Кевин Чэпмен, Томми Дэвидсон, Ричард Эдсон, Арсенио Холл, Даррел Хит, Бадди Льюис, Брайан МакНайт, Байрон Миннс

Описание: В районах черного гетто свирепствует итальянская мафия: сиротский приют садится на героин, на улицах распространяется контрабандная бражка под видом крутого ликера. Секретный агент ЦРУ по прозвищу Черный Динамит берет дело в свои руки, поводом для чего становится убийство его брата.

Качество: HDRip
Формат: AVI
Видео кодек: XviD
Аудио кодек: AC3
Видео: 720x384 (1.88:1), 23.976 fps, XviD build 50 ~1533 kbps avg, 0.23 bit/pixel
Аудио#1: русский 48 kHz, AC3 Dolby Digital, 3/2 (L,C,R,l,r) + LFE ch, ~384 kbps Любительский двухголосый
Аудио#2: английский 48 kHz, AC3 Dolby Digital, 3/2 (L,C,R,l,r) + LFE ch, ~384 kbps Оригинал





Общее
Полное имя : E:ТоррентыPiratbitChernyj dinamit.avi
Формат : AVI
Формат/Информация : Audio Video Interleave
Размер файла : 1,36 Гбайт
Продолжительность : 1 ч. 24 м.
Общий поток : 2316 Кбит/сек
Программа кодирования : VirtualDubMod 1.5.4.1 (build 2178/release)
Библиотека кодирования : VirtualDubMod build 2178/release

Видео
Идентификатор : 0
Формат : MPEG-4 Visual
Профиль формата : Advanced Simple@L5
Параметр BVOP формата : 3
Параметр QPel формата : Нет
Параметр GMC формата : Без точки перехода
Параметр матрицы формата : Выборочная
Идентификатор кодека : XVID
Идентификатор кодека/Подсказка : XviD
Продолжительность : 1 ч. 24 м.
Битрейт : 1534 Кбит/сек
Ширина : 720 пикселей
Высота : 384 пикселя
Соотношение сторон : 1,85:1
Частота кадров : 23,976 кадра/сек
Цветовое пространство : YUV
Субдискретизация насыщенности : 4:2:0
Битовая глубина : 8 бит
Тип развёртки : Прогрессивная
Метод сжатия : С потерями
Бит/(Пиксели*Кадры) : 0.231
Размер потока : 924 Мбайт (66%)
Библиотека кодирования : XviD 1.2.1 (UTC 2008-12-04)

Аудио #1
Идентификатор : 1
Формат : AC-3
Формат/Информация : Audio Coding 3
Расширение режима : CM (complete main)
Параметр Endianness формата : Big
Идентификатор кодека : 2000
Продолжительность : 1 ч. 24 м.
Вид битрейта : Постоянный
Битрейт : 384 Кбит/сек
Каналы : 6 каналов
Расположение каналов : Front: L C R, Side: L R, LFE
Частота : 48,0 КГц
Битовая глубина : 16 бит
Метод сжатия : С потерями
Размер потока : 231 Мбайт (17%)
Выравнивание : Разделение по промежуткам
Продолжительность промежутка : 42 мс. (1,00 видеокадр)
Время предзагрузки промежутка : 500 мс.

Аудио #2
Идентификатор : 2
Формат : AC-3
Формат/Информация : Audio Coding 3
Расширение режима : CM (complete main)
Параметр Endianness формата : Big
Идентификатор кодека : 2000
Продолжительность : 1 ч. 24 м.
Вид битрейта : Постоянный
Битрейт : 384 Кбит/сек
Каналы : 6 каналов
Расположение каналов : Front: L C R, Side: L R, LFE
Частота : 48,0 КГц
Битовая глубина : 16 бит
Метод сжатия : С потерями
Размер потока : 231 Мбайт (17%)
Выравнивание : Разделение по промежуткам
Продолжительность промежутка : 42 мс. (1,00 видеокадр)
Время предзагрузки промежутка : 500 мс.


Черный динамит скачать торрент


pb.wtf



Скачать Черный динамит через торрент http://pic.kartinco.top/images/1/w88tv47vma.png Скачать фильм Черный динамит через торрент бесплантно в хорошем качестве Описание: В районах черного гетто свирепствует итальянская мафия: сиротский приют садится на героин, на улицах распространяется ... 5 10 1
Info! Золотая раздача, скачанное не засчитывается.
Торрент: Зарегистрирован [2012-10-27 07:12] · скачан: 84 раз
Статус: √ проверено
Размер: 1.36 GB
Как cкачать? Как скачать Черный динамит через торрент | qTorrent


>> Регистрируемся здесь <<






Отзывы и комментарии о схеме читаем и пишем здесь: ---> Отзывы и комментарии о схеме

Новые благодарочки в телеграм довольных пользователей:
скриншот   скриншот   скриншот   скриншот   скриншот

27-10-2012 07:15 Черный динамит Скачать торрент  

pb.wtf



27-10-2012 08:59 Черный динамит Скачать торрент  

Столько негров в одном фильме я еще не видел. Тем кто не смотрел старые боевики и детективы, смотреть нет смысла, юмора не пойметеpb.wtf



27-10-2012 09:42 Черный динамит Скачать торрент  

Я подумал, что в главной роли Ричард Прайор.pb.wtf



    Дорогой пользователь! Огромная просьба, поблагодарите релизера, оцените раздачу и оставьте свои комментарий, если Вы скачали Черный динамит через торрент бесплатно! Внесите свою лепту в развитие PiratBit!
    Комментировать посты могут только пользователи прошедшие не сложную регистрацию
    Показать сообщения:    

    Черный динамит через торрент
    Скачать бесплатно Черный динамит
    Черный динамит скачать торрент
    Черный динамит смотреть онлайн
    Cкачать фильм Черный динамит бесплатно
    Черный динамит скачать торрент в хорошем качестве
    Черный динамит смотреть онлайн бесплатно в хорошем качестве


    Вы не можете начинать темы
    Вы не можете отвечать на сообщения
    Вы не можете редактировать свои сообщения
    Вы не можете удалять свои сообщения
    Вы не можете голосовать в опросах
    Вы не можете прикреплять файлы к сообщениям
    Вы можете скачивать файлы