Всегда рабочее зеркало без VPN и Proxy просто перед .vidak.icu напиши любое слово или цифру, Пример http://ms8r.vidak.icu

MVO

MVO

1 сезон

1

1 сезон

iTunes

1 сезон

13

1 сезон

Deluxe

pack

Рекомендуем

Repack

30

ВАЖНО

RePack

MK11

RePack

jed

RePack

fifa19

RePack

RDR2

RePack

NEED FOR SPEED™ PAYBACK

Кинопоиск HD

6 сезон

 Острые козырьки 6 сезон

Все сериалы

все сериалы на PB.wtf

RePack

FAR CRY 5
  
Magnet ссылка

Пророчество Судного дня / Doomsday Prophecy (Джейсон Бурк) [2011 г., фантастика, HDRip, MVO, лицензия] pb.wtf

Пророчество Судного дня через торрент pb.wtf

Размер: 1.46 GB | Добавлен: 9 лет 9 мес. назад | Торрент скачан:225 раз
Смотреть онлайн Пророчество Судного дня | Скачать    Ребята, помогите собрать деньги на оплату серверов!!!

27-10-2012 11:23 Пророчество Судного дня Скачать торрент  

Пророчество Судного дня / Doomsday Prophecy

Год выпуска: 2011
Страна: Канада
Жанр: фантастика
Продолжительность: 01:32:18
Перевод: Профессиональный многоголосый, Лицензия

Режиссер: Джейсон Бурк
Продюссер: Жиль ЛаПланте, Жози Бернард, Том Берри
Сценарий: Джейсон Бурк, Шоун Линден

Премьера в мире: 13 августа 2011



В ролях: Джуэл Стэйт, Алан Дэйл, А.Дж. Баккли, Гордон Тутусис, Брюс Рэмсей, Мэтт Андерсон, Рик Раванелло, Хиро Канагава, Дэвид Ричмонд-Пек, Джерри Вассерман, Паула Линдберг, Филлип Митчелл, Кейт Гайдошик

Описание: В руки корректора Эрика Фокса попадает загадочный артефакт, вызывающий у него видения апокалипсиса. Объединившись с археологом Брук Келвин, Фокс пытается разгадать тайну артефакта и спасти мир, скрываясь при этом от правительственных агентов…

Качество: HDRip
Формат: AVI
Видео кодек: XviD
Аудио кодек: AC3
Видео: 720x400 (1.80:1), 23.976 fps, XviD MPEG-4 ~1802 kbps avg, 0.26 bit/pixel
Аудио#1: 48 kHz, AC3 Dolby Digital, 3/2 (L,C,R,l,r) + LFE ch, ~448 kbps

General
Complete name : H:кино 2Prorochestvo.sudnogo.dnia.2011.P.HDRip.IRONCLUB.avi
Format : AVI
Format/Info : Audio Video Interleave
File size : 1.46 GiB
Duration : 1h 32mn
Overall bit rate : 2 259 Kbps
Movie name : Prorochestvo.o.sudnom.dne.2011.P.HDRip.IRONCLUB
Director : IRONCLUB
Genre : Sci-Fi
Writing application : VirtualDubMod 1.5.10.2 (build 2540/release)
Copyright : http://ironclub.tv/

Video
ID : 0
Format : MPEG-4 Visual
Format profile : Advanced [email protected]
Format settings, BVOP : No
Format settings, QPel : No
Format settings, GMC : No warppoints
Format settings, Matrix : Custom
Codec ID : XVID
Codec ID/Hint : XviD
Duration : 1h 32mn
Bit rate : 1 802 Kbps
Width : 720 pixels
Height : 400 pixels
Display aspect ratio : 16:9
Frame rate : 23.976 fps
Color space : YUV
Chroma subsampling : 4:2:0
Bit depth : 8 bits
Scan type : Progressive
Compression mode : Lossy
Bits/(Pixel*Frame) : 0.261
Stream size : 1.16 GiB (80%)
Writing library : XviD 1.2.1 (UTC 2008-12-04)

Audio
ID : 1
Format : AC-3
Format/Info : Audio Coding 3
Mode extension : CM (complete main)
Codec ID : 2000
Duration : 1h 32mn
Bit rate mode : Constant
Bit rate : 448 Kbps
Channel(s) : 6 channels
Channel positions : Front: L C R, Side: L R, LFE
Sampling rate : 48.0 KHz
Bit depth : 16 bits
Compression mode : Lossy
Stream size : 296 MiB (20%)
Alignment : Split accross interleaves
Interleave, duration : 42 ms (1.00 video frame)
Interleave, preload duration : 500 ms

pb.wtf



Скачать Пророчество Судного дня через торрент https://pic1.kartinco.top/images/111/yhjwirkaab.png Скачать, смотреть онлайн Пророчество Судного дня бесплантно в хорошем качестве Описание: В руки корректора Эрика Фокса попадает загадочный артефакт, вызывающий у него видения апокалипсиса. Объединившись с археологом ... 10 10 1
Info! Золотая раздача, скачанное не засчитывается.
Торрент: Зарегистрирован [2012-10-27 11:23] · скачан: 225 раз
Статус: √ проверено
Размер: 1.46 GB
Как cкачать? Как скачать Пророчество Судного дня через торрент | UTorrent

28-11-2019 20:33  

Отключить вcю реклaмy на сайте

27-10-2012 11:57 Пророчество Судного дня Скачать торрент  

Как кино? Стоит смотреть?pb.wtf



27-10-2012 12:10 Пророчество Судного дня Скачать торрент  

Скрины заинтриговали,смотреть не буду.pb.wtf



27-10-2012 12:55 Пророчество Судного дня Скачать торрент  

Ну хоть скрины бы поинтереснее нашел бы!pb.wtf



27-10-2012 13:26 Пророчество Судного дня Скачать торрент  

pozd6 писал(а):

Скрины заинтриговали,смотреть не буду.

та же херня)))pb.wtf



    Дорогой пользователь! Огромная просьба, поблагодарите релизера, оцените раздачу и оставьте свои комментарий, если Вы скачали Пророчество Судного дня через торрент бесплатно!
    Комментировать посты могут только пользователи прошедшие не сложную регистрацию
    Показать сообщения:    

    Пророчество Судного дня через торрент
    Скачать бесплатно Пророчество Судного дня
    Пророчество Судного дня скачать торрент
    Пророчество Судного дня смотреть онлайн
    Cкачать фильм Пророчество Судного дня бесплатно
    Пророчество Судного дня скачать торрент в хорошем качестве
    Пророчество Судного дня смотреть онлайн бесплатно в хорошем качестве


    Вы не можете начинать темы
    Вы не можете отвечать на сообщения
    Вы не можете редактировать свои сообщения
    Вы не можете удалять свои сообщения
    Вы не можете голосовать в опросах
    Вы не можете прикреплять файлы к сообщениям
    Вы можете скачивать файлы