1 сезон

1 сезон

iTunes

1

КиноПоиск HD

Кинопоиск HD

iTunes

13

1 сезон

RePack

30

Ultimate

ВАЖНО

ИГРА 18+

pack

RePack

MK11
pack

Легкие деньги

RePack

jed

RePack

fifa19

RePack

RDR2

RePack

NEED FOR SPEED™ PAYBACK

4 сезон

9 сезон

Бесстыжие 9 сезон

Все сериалы

все сериалы на PB.wtf

RePack

FAR CRY 5
  
Magnet ссылка

Жизнь Дэвида Гейла / The Life of David Gale (Алан Паркер) [2003 г., драма, триллер, криминал, DVDRip, MVO, лицензия] pb.wtf

Жизнь Дэвида Гейла через торрент pb.wtf

Размер: 2.05 GB | Добавлен: 8 лет 5 мес. назад | Торрент скачан:905 раз
Скачать  

28-10-2012 17:19 Жизнь Дэвида Гейла Скачать торрент  

Жизнь Дэвида Гейла / The Life of David Gale

Год выпуска: 2003
Страна: США, Германия, Великобритания
Жанр: драма, триллер, криминал
Продолжительность: 02:10:22
Перевод: Профессиональный многоголосый

Режиссер: Алан Паркер
Продюссер: Николас Кейдж, Алан Паркер, Мориц Борман
Сценарий: Чарльз Рэндольф

Бюджет: $38 000 000
Премьера в мире: 7 февраля 2003

лицам до 17 лет обязательно присутствие взрослого
7.40 (54 991)
http://www.kinopoisk.ru/film/738/

В ролях: Кейт Уинслет, Клео Кинг, Констанс Джонс, Кевин Спейси, Лора Линни, Lee Ritchey, Гэбриел Манн, Мэтт Крэвен, Брэнди Литтл, Синди Вей, Рона Митра

Описание: Дэвид Гейл — человек, который пробовал жить в соответствии со своими принципами, но, в причудливом повороте судьбы, этот преданный отец, популярный профессор и ярый противник смертной казни окажется в камере смертников за убийство активистки Констанции Харравей. За три дня до исполнения приговора Гейл соглашается дать интервью репортеру Битси Блум. Но журналистка вскоре понимает, что ее участие в этом деле не ограничится одним интервью, и что жизнь человека находится в ее руках. Поставив на кон свою собственную безопасность, она начинает расследовать те ужасные события, которые окружали смерть Констанции.

Качество: DVDRip
Видео кодек: DivX
Аудио кодек: AC3
Видео: MPEG-4 Visual, DivX, 1798 Кбит/с, 688x288пикселей, 23,976 кадра/сек
Аудио#1: AC3, 6 каналов , 448 Кбит/с, 48,0 КГц, Russian





Формат : AVI
Формат/Информация : Audio Video Interleave
Профиль формата : OpenDML
Размер файла : 2,05 Гбайт
Продолжительность : 2 ч. 10 м.
Общий поток : 2255 Кбит/сек
Программа кодирования : VirtualDubMod 1.5.4.1 (build 2178/release)
Библиотека кодирования : VirtualDubMod build 2178/release

Видео
Идентификатор : 0
Формат : MPEG-4 Visual
Параметр BVOP формата : 1
Параметр QPel формата : Нет
Параметр GMC формата : Без точки перехода
Параметр матрицы формата : Default (H.263)
Режим смешивания : Сжатый битовый поток
Идентификатор кодека : DX50
Идентификатор кодека/Подсказка : DivX 5
Продолжительность : 2 ч. 10 м.
Битрейт : 1798 Кбит/сек
Ширина : 688 пикселей
Высота : 288 пикселей
Соотношение сторон : 2,40:1
Частота кадров : 23,976 кадра/сек
Цветовое пространство : YUV
Субдискретизация насыщенности : 4:2:0
Битовая глубина : 8 бит
Тип развёртки : Прогрессивная
Метод сжатия : С потерями
Бит/(Пиксели*Кадры) : 0.378
Размер потока : 1,64 Гбайт (80%)
Библиотека кодирования : DivX 6.8.3-6.8.4 (UTC 2008-06-07)

Аудио
Идентификатор : 1
Формат : AC-3
Формат/Информация : Audio Coding 3
Расширение режима : CM (complete main)
Параметр Endianness формата : Big
Идентификатор кодека : 2000
Продолжительность : 2 ч. 10 м.
Вид битрейта : Постоянный
Битрейт : 448 Кбит/сек
Каналы : 6 каналов
Расположение каналов : Front: L C R, Side: L R, LFE
Частота : 48,0 КГц
Битовая глубина : 16 бит
Метод сжатия : С потерями
Размер потока : 418 Мбайт (20%)
Выравнивание : Разделение по промежуткам
Продолжительность промежутка : 96 мс. (2,30 видеокадра)
Время предзагрузки промежутка : 96 мс.
Язык : Russian

pb.wtf



Скачать Жизнь Дэвида Гейла через торрент https://pic.kartinco.top/images/1/n3zkat75i7.jpg Скачать фильм Жизнь Дэвида Гейла через торрент бесплантно в хорошем качестве Описание: Дэвид Гейл — человек, который пробовал жить в соответствии со своими принципами, но, в причудливом повороте судьбы, этот ... 9.8 10 15
Info! Золотая раздача, скачанное не засчитывается.
Торрент: Зарегистрирован [2012-10-28 17:19] · скачан: 905 раз
Статус: √ проверено
Размер: 2.05 GB
Как cкачать? Как скачать Жизнь Дэвида Гейла через торрент | UTorrent

% Раздел Тема Автор DL S | L
Фильмы [HD 720p, 1080p] (Хороший звук DUB, MVO) [ 14.95 GB ] Жизнь Дэвида Гейла / The Life of David Gale [2003 BDRip 1080p 3хMVO 2хAVO] _denis_100 Скачать
1 | 0
Фильмы 2001-2005 [ 785 MB ] Жизнь Дэвида Гейла / Life of David Gale The [2003 HDRip] MVO -=Cherry=- Скачать
1 | 0
Фильмы (WEB-DL 720p, 1080p) [ 6.97 GB ] Жизнь Дэвида Гейла / The Life of David Gale [2003 HDTVRip 720p] MVO .::Sergey::. Скачать
1 | 0

28-11-2019 20:33  

Отключить всю рекламу на сайте

28-10-2012 17:36 Жизнь Дэвида Гейла Скачать торрент  

lexxus350
Спасибо друг, должен быть отличный фильм. pb.wtf



28-10-2012 21:07 Жизнь Дэвида Гейла Скачать торрент  

Николас Кейдж...продюсер!должно быть что то интересное+хорошие актеры и помоему неплохой сюжет!берем!спасибочки! :good:pb.wtf



    Дорогой пользователь! Огромная просьба, поблагодарите релизера, оцените раздачу и оставьте свои комментарий, если Вы скачали Жизнь Дэвида Гейла через торрент бесплатно! Внесите свою лепту в развитие PiratBit!
    Комментировать посты могут только пользователи прошедшие не сложную регистрацию
    Показать сообщения:    

    Жизнь Дэвида Гейла через торрент
    Скачать бесплатно Жизнь Дэвида Гейла
    Жизнь Дэвида Гейла скачать торрент
    Жизнь Дэвида Гейла смотреть онлайн
    Cкачать фильм Жизнь Дэвида Гейла бесплатно
    Жизнь Дэвида Гейла скачать торрент в хорошем качестве
    Жизнь Дэвида Гейла смотреть онлайн бесплатно в хорошем качестве


    Вы не можете начинать темы
    Вы не можете отвечать на сообщения
    Вы не можете редактировать свои сообщения
    Вы не можете удалять свои сообщения
    Вы не можете голосовать в опросах
    Вы не можете прикреплять файлы к сообщениям
    Вы можете скачивать файлы