Ссылка на приватное зеркало нашего сайта всего за 1$. Внимание количество ограничено!!!

2 сезон

iTunes

1 сезон

1

iTunes

iTunes

iTunes

1 сезон

RePack

30

ИГРА 18+

pack

ВАЖНО

!!Акция!!

Alien_RageХит недели

RePack

MK11
pack

Забери бонус

RePack

jed

!!Акция!!

Alien_Rage

RePack

fifa19

RePack

Assassins Creed: Odyssey

RePack

NEED FOR SPEED™ PAYBACK

4 сезон

9 сезон

Бесстыжие 9 сезон

Все сериалы

все сериалы на PB.wtf

RePack

FAR CRY 5
  

Транзит / Transit (Антонио Негрет) [2012 г., боевик, триллер, драма, криминал, BDRip 720p, MVO, лицензия] pb.wtf

Транзит через торрент pb.wtf

Размер: 4.23 GB | Добавлен: 7 лет 11 мес. назад | Торрент скачан:173 раза
Скачать  

29-10-2012 07:37 Транзит Скачать торрент  


Транзит / Transit
Год выпуска: 2012
Страна: США
Жанр: боевик, триллер, драма, криминал
Продолжительность: 01:28:18
Перевод: Профессиональный многоголосый, Лицензия


Режиссер: Антонио Негрет
Продюссер: Кортни Соломон, Моше Дайамант, Йорам Барзилай
Сценарий: Майкл Гилвари

Бюджет: $5 000 000
Премьера в мире: 3 января 2012




В ролях: Джеймс Кэвизел, Диора Бэрд, Элизабет Рём, Джеймс Фрейн, Стерлинг Найт, Хэролд Перрино, Джэйк Черри, Райан Доноху, Бо Брассо, Робби Джонс

Описание: Чтобы перевезти украденные четыре миллиона долларов через дорожный контрольно-пропускной пункт, виновники кровавого ограбления банка используют простую семью, как невольных курьеров. Теперь преступники хотят получить свои деньги назад и не остановятся ни перед чем, чтобы вернуть их.



Качество: BDRip 720p
Формат: MKV
Видео кодек: H.26x
Аудио кодек: AC3
Видео: 1280x546 MPEG Video, 23.976 кадр/сек, 5009 Кбит/сек
Аудио#1: Russian: AC3, 384 kb/s (6 ch) 48.0 KHz
Аудио#2: English: DTS, 1510 kb/s (6 ch) 48.0 KHz
Субтитры: Украинские, английские
Релиз от:
General
Unique ID : 170637253119983882946901844485216457694 (0x805F8A1F5EDA4D12A1A6A029D9C0D3DE)
Complete name : Tranzit.2012.P.BDRip.720p.IRONCLUB.mkv
Format : Matroska
Format version : Version 2
File size : 4.23 GiB
Duration : 1h 27mn
Overall bit rate : 6 896 Kbps
Movie name : IRONCLUB
Encoded date : UTC 2012-06-09 07:53:35
Writing application : mkvmerge v4.9.1 ('Ich will') built on Jul 11 2011 23:53:15
Writing library : libebml v1.2.1 + libmatroska v1.1.1

Video
ID : 1
Format : AVC
Format/Info : Advanced Video Codec
Format profile : High@L4.1
Format settings, CABAC : Yes
Format settings, ReFrames : 11 frames
Codec ID : V_MPEG4/ISO/AVC
Duration : 1h 27mn
Bit rate : 5 006 Kbps
Width : 1 280 pixels
Height : 546 pixels
Display aspect ratio : 2.35:1
Frame rate : 23.976 fps
Color space : YUV
Chroma subsampling : 4:2:0
Bit depth : 8 bits
Scan type : Progressive
Bits/(Pixel*Frame) : 0.299
Stream size : 2.99 GiB (71%)
Title : Transit.2012.BluRay.720p.DTS.x264-CHD
Writing library : x264 core 122 r2184+660+29 d9bb3b9 tMod+MixAQ [8-bit@all X86]
Encoding settings : cabac=1 / ref=11 / deblock=1:-3:-3 / analyse=0x3:0x113 / me=umh / subme=11 / psy=1 / fade_compensate=0.00 / psy_rd=1.10:0.15 / mixed_ref=1 / me_range=32 / chroma_me=1 / trellis=2 / 8x8dct=1 / cqm=0 / deadzone=21,11 / fast_pskip=0 / chroma_qp_offset=-2 / threads=6 / sliced_threads=0 / nr=0 / decimate=1 / interlaced=0 / bluray_compat=0 / constrained_intra=0 / fgo=0 / bframes=6 / b_pyramid=2 / b_adapt=2 / b_bias=0 / direct=3 / weightb=1 / open_gop=0 / weightp=2 / keyint=250 / keyint_min=23 / scenecut=40 / intra_refresh=0 / rc_lookahead=60 / rc=2pass / mbtree=0 / bitrate=5006 / ratetol=1.0 / qcomp=0.60 / qpmin=0 / qpmax=69 / qpstep=4 / cplxblur=20.0 / qblur=0.5 / vbv_maxrate=40000 / vbv_bufsize=30000 / nal_hrd=none / ip_ratio=1.40 / pb_ratio=1.30 / aq=1 / aq-strength=0.80 / aq-sensitivity=10.00 / aq-ifactor=1.00 / aq-pfactor=1.00 / aq-bfactor=1.00 / aq2=0
Language : English
Default : Yes
Forced : Yes

Audio #1
ID : 2
Format : AC-3
Format/Info : Audio Coding 3
Mode extension : CM (complete main)
Format settings, Endianness : Big
Codec ID : A_AC3
Duration : 1h 27mn
Bit rate mode : Constant
Bit rate : 384 Kbps
Channel(s) : 6 channels
Channel positions : Front: L C R, Side: L R, LFE
Sampling rate : 48.0 KHz
Bit depth : 16 bits
Compression mode : Lossy
Stream size : 241 MiB (6%)
Title : DD 5.1 @ 384 kbps - MVO, R5
Language : Russian
Default : Yes
Forced : Yes

Audio #2
ID : 3
Format : DTS
Format/Info : Digital Theater Systems
Codec ID : A_DTS
Duration : 1h 27mn
Bit rate mode : Constant
Bit rate : 1 510 Kbps
Channel(s) : 6 channels
Channel positions : Front: L C R, Side: L R, LFE
Sampling rate : 48.0 KHz
Bit depth : 24 bits
Compression mode : Lossy
Stream size : 949 MiB (22%)
Title : DTS 5.1 @ 1536 kbps
Language : English
Default : No
Forced : No

Text #1
ID : 4
Format : UTF-8
Codec ID : S_TEXT/UTF8
Codec ID/Info : UTF-8 Plain Text
Title : R5
Language : Ukrainian
Default : No
Forced : No

Text #2
ID : 5
Format : UTF-8
Codec ID : S_TEXT/UTF8
Codec ID/Info : UTF-8 Plain Text
Language : English
Default : No
Forced : No

pb.wtf



Скачать Транзит через торрент http://pic.kartinco.top/images/1/5myh1myjq3.png Скачать фильм Транзит через торрент бесплантно в хорошем качестве Описание: Чтобы перевезти украденные четыре миллиона долларов через дорожный контрольно-пропускной пункт, виновники кровавого ограбления ... 5 10 1
Info! Золотая раздача, скачанное не засчитывается.
Торрент: Зарегистрирован [2012-10-29 07:37] · скачан: 173 раз
Статус: √ проверено
Размер: 4.23 GB
Как cкачать? Как скачать Транзит через торрент | qTorrent

% Раздел Тема Автор DL S | L
# Фильмы (мультфильмы) cо спонсором показа (Новинки AVI/MKV) [ 5.11 GB ] Транзит / Transit [2018 BDRip 720p] MVO ["Синема УС"] bober100 Скачать
1 | 0
T Фильмы (мультфильмы) cо спонсором показа (Новинки AVI/MKV) [ 1.36 GB ] Транзит / Transit [2018 HDRip] MVO ["Синема УС"] bober100 Скачать
1 | 0
Фильмы 2012 [ 1.7 GB ] Транзит / Transit [2012 HDRip-AVC] MVO + Original + Sub potroks Скачать
1 | 0
Фильмы 2012 [ 1.37 GB ] Транзит / Transit [2012 HDRip ] Серёжк@ Скачать
1 | 0
Фильмы 2012 [ 698 MB ] Транзит / Transit [2012 HDRip ] Newton5 Скачать
1 | 0

28-11-2019 20:33  

Отключить всю рекламу на сайте

    Дорогой пользователь! Огромная просьба, поблагодарите релизера, оцените раздачу и оставьте свои комментарий, если Вы скачали Транзит через торрент бесплатно! Внесите свою лепту в развитие PiratBit!
    Комментировать посты могут только пользователи прошедшие не сложную регистрацию
    Показать сообщения:    

    Транзит через торрент
    Скачать бесплатно Транзит
    Транзит скачать торрент
    Транзит смотреть онлайн
    Cкачать фильм Транзит бесплатно
    Транзит скачать торрент в хорошем качестве
    Транзит смотреть онлайн бесплатно в хорошем качестве


    Вы не можете начинать темы
    Вы не можете отвечать на сообщения
    Вы не можете редактировать свои сообщения
    Вы не можете удалять свои сообщения
    Вы не можете голосовать в опросах
    Вы не можете прикреплять файлы к сообщениям
    Вы можете скачивать файлы