Ссылка на приватное зеркало нашего сайта всего за 1$. Внимание количество ограничено!!!

2 сезон

iTunes

1 сезон

1

2 сезон

2 сезон

iTunes

1 сезон

RePack

30

Новинка

ВАЖНО

ИГРА 18+

pack

RePack

MK11
pack

Забери бонус

RePack

jed

!!Акция!!

Alien_Rage

RePack

fifa19

RePack

Assassins Creed: Odyssey

RePack

NEED FOR SPEED™ PAYBACK

4 сезон

9 сезон

Бесстыжие 9 сезон

Все сериалы

все сериалы на PB.wtf

RePack

FAR CRY 5
  

Наркоман Павлик (Сезон: 1) (Серии: 1-20 из 20) (Павел Радонцев) [2012 г, Юмор,WEBRip (720p), Оригинал] pb.wtf

Наркоман Павлик через торрент pb.wtf

Размер: 2.91 GB | Добавлен: 8 лет назад | Торрент скачан:417 раз
Скачать  

29-10-2012 09:23 Наркоман Павлик Скачать торрент  

Наркоман Павлик

Год выпуска: 2012
Страна: Россия
Жанр: Юмор
Продолжительность: 02:54:05
Перевод: Оригинал

Режиссер: Павел Радонцев
Сценарий: Павел Радонцев

В ролях: Павел Радонцев, Денис Гущин, Антон Батищев, Валера и др.
Внимание ненормативная лексика

Описание: Сериал «Наркоман Павлик» создан для тех, что вкуривает тему по-полной и при этом не лишён чувства здорового смеха…. Ну, допустим, не смеха, конечно,…хех, а юмора. Вернее даже «йумора»… Короче, обдолбанный всю дорогу в мясо Павлик тусит по-полной, то по Испании, то по ночному городу, а то просто отлёживается на больничке после очередного мощного укура. Его приятель Дэнчик умудряется недурственно водить «мазду-трёшку», хотя с мозгами у этого типка, похоже, полный хлам. Но главный друг Павлика – это, конечно же, Валера. Который реально решает все проблемы. Кто такой Валера говорить слегонца преждевременно, но это действительно очень убедительная сущность.
Что можно сказать в целом об этом безбашенном бодром сериале? Это крутой стёб, наполненный бесшабашными и довольно невинными шутками. Некоторые могут сказать, что это вовсе не смешно, но попробуйте хоть раз удолбаться так, как это делает Павлик, и вы сразу же врубитесь, что это смешно и даже очень. Самое ценное в этом потешном авторском киношнике с точки зрения профессионалов – это мастерская работа оператора, позволяющая смотреть на мир глазами «убитого в хлам» Павлика. То есть, благодаря этому чудо-сериалу, совсем не обязательно жестоко дуть траву самостоятельно – достаточно осмотреть серию-другую, и вас вопрёт не по-детски. Одним словом: «Павлик, жги исчо!»

Качество: WEBRip
Формат: MP4
Видео кодек: H.264
Аудио кодек: ACC
Видео: 1280*720 пикселей,2195 Кбит/сек,в 25,000 кадров/сек
Аудио#1: 192 Кбит/сек,44,1 КГц, 2 канала, AAC (LC)
Релиз от: Rip by Xp_Dron



Общее
Полное имя : D:РаздачиНаркоман Павлик (Все Серии 1 Сезона) [HD].mp4
Формат : MPEG-4
Профиль формата : Base Media / Version 2
Идентификатор кодека : mp42
Размер файла : 2,91 Гбайт
Продолжительность : 2 ч. 54 м.
Режим общего битрейта : Переменный
Общий поток : 2389 Кбит/сек
Дата кодирования : UTC 2012-08-13 11:27:01
Дата пометки : UTC 2012-08-13 11:27:01
gsst : 0
gstd : 10445658
gssd : B4A7DDA61HH1351494300475495
gshh : r1---fra07t14.c.youtube.com

Видео
Идентификатор : 1
Формат : AVC
Формат/Информация : Advanced Video Codec
Профиль формата : High@L3.1
Параметр CABAC формата : Да
Параметр ReFrames формата : 1 кадр
Параметр GOP формата : M=1, N=60
Идентификатор кодека : avc1
Идентификатор кодека/Информация : Advanced Video Coding
Продолжительность : 2 ч. 54 м.
Битрейт : 2195 Кбит/сек
Максимальный битрейт : 8327 Кбит/сек
Ширина : 1280 пикселей
Высота : 720 пикселей
Соотношение сторон : 16:9
Режим частоты кадров : Постоянный
Частота кадров : 25,000 кадров/сек
Цветовое пространство : YUV
Субдискретизация насыщенности : 4:2:0
Битовая глубина : 8 бит
Тип развёртки : Прогрессивная
Бит/(Пиксели*Кадры) : 0.095
Размер потока : 2,67 Гбайт (92%)
Дата пометки : UTC 2012-08-13 11:30:10

Аудио
Идентификатор : 2
Формат : AAC
Формат/Информация : Advanced Audio Codec
Профиль формата : LC
Идентификатор кодека : 40
Продолжительность : 2 ч. 54 м.
Вид битрейта : Переменный
Битрейт : 192 Кбит/сек
Максимальный битрейт : 202 Кбит/сек
Каналы : 2 канала
Расположение каналов : Front: L R
Частота : 44,1 КГц
Метод сжатия : С потерями
Размер потока : 239 Мбайт (8%)
Заголовок : IsoMedia File Produced by Google, 5-11-2011
Дата кодирования : UTC 2012-08-13 11:28:54
Дата пометки : UTC 2012-08-13 11:30:10

pb.wtf



Скачать Наркоман Павлик через торрент http://pic.kartinco.top/images/1/orkr3tjlfl.jpg Скачать фильм Наркоман Павлик через торрент бесплантно в хорошем качестве Описание: Сериал «Наркоман Павлик» создан для тех, что вкуривает тему по-полной и при этом не лишён чувства здорового смеха…. Ну, допустим, ... 9.1 10 12
Info! Золотая раздача, скачанное не засчитывается.
Торрент: Зарегистрирован [2012-10-29 09:23] · скачан: 417 раз
Статус: √ проверено
Размер: 2.91 GB
Как cкачать? Как скачать Наркоман Павлик через торрент | qTorrent

% Раздел Тема Автор DL S | L
Аудио и видео ролики (Приколы и юмор) [ 10.02 GB ] Наркоман Павлик Сезон: 1 - 4 Серии 1 - 54 из ? [2012-2017 Юмор короткометражный WEBRip Оригинальный] schultz Скачать
1 | 0
Аудио и видео ролики (Приколы и юмор) [ 2.72 GB ] Наркоман Павлик [2015 Юмор короткометражный WEBRip] - Оригинал Ворон Скачать
1 | 0
Аудио и видео ролики (Приколы и юмор) [ 7.92 GB ] Наркоман Павлик [2012 шоу WEBRip Оригинал] Older Скачать
1 | 0


Последний раз редактировалось: AEZ (2012-10-29 12:30), всего редактировалось 7 раз(а)

28-11-2019 20:33  

Отключить всю рекламу на сайте

29-10-2012 09:34 Наркоман Павлик Скачать торрент  

Господи, удалите эту раздачу и никогда о ней не вспоминайте!pb.wtf



29-10-2012 09:35 Наркоман Павлик Скачать торрент  

1. Название топика должно быть следующего вида:

Код:

Название на русском / Название на оригинале (в случае если релиз зарубежный) (режиссер) [год, жанр, качество, перевод]

2. Наркоман Павлик (Все Серии 1 сезона) HD-Rip / Наркоман Павлик
3. Качество здесь WEBRip (720p)
4. Строка "Видео", как минимум, должна содержать следующую информацию:

Код:

разрешение (в пикселях), битрейт видео (kbps), частота кадров (fps), Бит/(Пиксели*Кадры) по желанию


Для изменения статуса раздачи, после исправления уведомить в со ссылкой на раздачуpb.wtf



    Дорогой пользователь! Огромная просьба, поблагодарите релизера, оцените раздачу и оставьте свои комментарий, если Вы скачали Наркоман Павлик через торрент бесплатно! Внесите свою лепту в развитие PiratBit!
    Комментировать посты могут только пользователи прошедшие не сложную регистрацию
    Показать сообщения:    

    Наркоман Павлик через торрент
    Скачать бесплатно Наркоман Павлик
    Наркоман Павлик скачать торрент
    Наркоман Павлик смотреть онлайн
    Cкачать фильм Наркоман Павлик бесплатно
    Наркоман Павлик скачать торрент в хорошем качестве
    Наркоман Павлик смотреть онлайн бесплатно в хорошем качестве


    Вы не можете начинать темы
    Вы не можете отвечать на сообщения
    Вы не можете редактировать свои сообщения
    Вы не можете удалять свои сообщения
    Вы не можете голосовать в опросах
    Вы не можете прикреплять файлы к сообщениям
    Вы можете скачивать файлы