1 сезон

1 сезон

iTunes

1

КиноПоиск HD

Кинопоиск HD

iTunes

13

1 сезон

RePack

30

Новинка

ВАЖНО

ИГРА 18+

pack

RePack

MK11
pack

Легкие деньги

RePack

jed

RePack

fifa19

RePack

RDR2

RePack

NEED FOR SPEED™ PAYBACK

4 сезон

9 сезон

Бесстыжие 9 сезон

Все сериалы

все сериалы на PB.wtf

RePack

FAR CRY 5
  
Magnet ссылка

Тайна ордена / The Order (Шелдон Леттич) [2001 г., боевик, комедия, приключения, HDRip, MVO] pb.wtf

Тайна ордена через торрент pb.wtf

Размер: 1.46 GB | Добавлен: 8 лет 5 мес. назад | Торрент скачан:105 раз
Скачать  

29-10-2012 10:05 Тайна ордена Скачать торрент  

Тайна ордена / The Order

: 2001
: Аруба, США
: боевик, комедия, приключения
: 01:29:22
: Профессиональный многоголосый,

: Шелдон Леттич


Мировой рейтинг IMDB 4.30 (4 577)


: Жан-Клод Ван Дамм, Чарлтон Хестон, София Милош, Брайан Томпсон, Бен Кросс, Вернон Добчефф, Сэссон Габаи, Алон Абутбул, Джой Томаска, Питер Малота


: Неутомимый искатель приключений Руди Кафмайер, промышляющий добычей уникальных произведений искусства и редкостных диковин для богатых коллекционеров, отправляется в Израиль на поиски своего пропавшего отца, составлявшего летопись древней таинственной секты «Орден».В Иерусалиме за авантюристом со скандальной репутацией сразу начинают охотиться наемные убийцы и полиция во главе с отважной Далией Барр, которая не раз спасет Руди жизнь во время головокружительных погонь и бешеных перестрелок на узких улочках древнего города, прежде чем ему удастся разоблачить глобальный заговор безумного главаря «Ордена» стремящегося начать новую Священную войну и установить на Земле Влacть крови и террора.

: HDRip-AVC
: MKV
: H.264
: AC3
: 720 x 392 (1,85:1), 23,976fps, AVC MPEG-4 (H.264), ~1961 kbps avg,0.290 bit/pixel
: 48 kHz, AC3 Dolby Digital, 3/2 (L,C,R,l,r) + LFE ch, ~384 kbps avg
Релиз от:





Общее
Уникальный идентификатор : 238259818413094289563283439186945702210 (0xB33F2C007F947A0588A947EBAEDEF942)
Полное имя : E:ТоррентыPiratbitThe Order.mkv
Формат : Matroska
Версия формата : Version 2
Размер файла : 1,46 Гбайт
Продолжительность : 1 ч. 29 м.
Общий поток : 2334 Кбит/сек
Дата кодирования : UTC 2012-10-28 17:17:16
Программа кодирования : mkvmerge v5.6.0 ('Kenya Kane') built on Jun 29 2012 15:01:44
Библиотека кодирования : libebml v1.2.3 + libmatroska v1.3.0

Видео
Идентификатор : 1
Формат : AVC
Формат/Информация : Advanced Video Codec
Профиль формата : High@L4.1
Параметр CABAC формата : Да
Параметр ReFrames формата : 8 кадров
Идентификатор кодека : V_MPEG4/ISO/AVC
Продолжительность : 1 ч. 29 м.
Битрейт : 1961 Кбит/сек
Ширина : 720 пикселей
Высота : 392 пикселя
Соотношение сторон : 1,85:1
Частота кадров : 23,976 кадра/сек
Цветовое пространство : YUV
Субдискретизация насыщенности : 4:2:0
Битовая глубина : 8 бит
Тип развёртки : Прогрессивная
Бит/(Пиксели*Кадры) : 0.290
Размер потока : 1,19 Гбайт (82%)
Библиотека кодирования : x264 core 125 r2200 999b753
Настройки программы : cabac=1 / ref=8 / deblock=1:0:0 / analyse=0x3:0x113 / me=hex / subme=7 / psy=1 / psy_rd=1.00:0.00 / mixed_ref=1 / me_range=16 / chroma_me=1 / trellis=1 / 8x8dct=1 / cqm=0 / deadzone=21,11 / fast_pskip=1 / chroma_qp_offset=-2 / threads=6 / lookahead_threads=1 / sliced_threads=0 / nr=0 / decimate=1 / interlaced=0 / bluray_compat=0 / constrained_intra=0 / bframes=4 / b_pyramid=2 / b_adapt=1 / b_bias=0 / direct=1 / weightb=1 / open_gop=0 / weightp=2 / keyint=250 / keyint_min=23 / scenecut=40 / intra_refresh=0 / rc_lookahead=40 / rc=abr / mbtree=1 / bitrate=1961 / ratetol=1.0 / qcomp=0.60 / qpmin=0 / qpmax=69 / qpstep=4 / ip_ratio=1.40 / aq=1:1.00
Default : Да
Forced : Нет

Аудио
Идентификатор : 2
Формат : AC-3
Формат/Информация : Audio Coding 3
Расширение режима : CM (complete main)
Параметр Endianness формата : Big
Идентификатор кодека : A_AC3
Продолжительность : 1 ч. 29 м.
Вид битрейта : Постоянный
Битрейт : 384 Кбит/сек
Каналы : 6 каналов
Расположение каналов : Front: L C R, Side: L R, LFE
Частота : 48,0 КГц
Битовая глубина : 16 бит
Метод сжатия : С потерями
Размер потока : 245 Мбайт (16%)
Default : Да
Forced : Нет


Тайна ордена скачать торрент


pb.wtf



Скачать Тайна ордена через торрент https://pic.kartinco.top/images/1/pa4jdrlzzq.png Скачать фильм Тайна ордена через торрент бесплантно в хорошем качестве Тайна ордена / The Order : 2001 : Аруба, США : боевик, комедия, приключения : 01:29:22 : Профессиональный , : Шелдон ... 10 10 1
Info! Золотая раздача, скачанное не засчитывается.
Торрент: Зарегистрирован [2012-10-29 10:05] · скачан: 105 раз
Статус: √ проверено
Размер: 1.46 GB
Как cкачать? Как скачать Тайна ордена через торрент | UTorrent

28-11-2019 20:33  

Отключить всю рекламу на сайте

29-10-2012 10:17 Тайна ордена Скачать торрент  


Для любознательных: Ару́ба (нидерл. и папьям. Aruba) — небольшой остров и одноимённое самоуправляемое государственное образование, расположенные на юге Карибского моря вблизи берегов Венесуэлы. Самый западный остров среди Малых Антильских островов. Является субъектом федерации в составе Королевства Нидерландов. Площадь суши — 193 км². Численность населения — 103 065 человек (2009). Столица — город Ораньестад.pb.wtf



29-10-2012 11:53 Тайна ордена Скачать торрент  

причем тут Аруба?pb.wtf



    Дорогой пользователь! Огромная просьба, поблагодарите релизера, оцените раздачу и оставьте свои комментарий, если Вы скачали Тайна ордена через торрент бесплатно! Внесите свою лепту в развитие PiratBit!
    Комментировать посты могут только пользователи прошедшие не сложную регистрацию
    Показать сообщения:    

    Тайна ордена через торрент
    Скачать бесплатно Тайна ордена
    Тайна ордена скачать торрент
    Тайна ордена смотреть онлайн
    Cкачать фильм Тайна ордена бесплатно
    Тайна ордена скачать торрент в хорошем качестве
    Тайна ордена смотреть онлайн бесплатно в хорошем качестве


    Вы не можете начинать темы
    Вы не можете отвечать на сообщения
    Вы не можете редактировать свои сообщения
    Вы не можете удалять свои сообщения
    Вы не можете голосовать в опросах
    Вы не можете прикреплять файлы к сообщениям
    Вы можете скачивать файлы