MEGA SALE -50% FORZA HORIZON 4 ULTIMATE+ВСЕ DLC+ОНЛАЙН всего за 599р. 299 руб. (супер цена). Внимание количество ограничено!!!

iTunes

1+1

iTunes

мы

iTunes

1

iTunes

Чернобыль

iTunes

Ральф против интернета

Лицензия

ПШазам

Лицензия

Игра престолов

Лицензия

30
pack

ВАЖНО

!!Акция!!

Alien_RageХит недели

RePack

Resident Evil 21

ИГРА 18+

pack

RePack

Metro:Exodus

!!Акция!!

Alien_Rage

RePack

fifa19

RePack

Assassins Creed: Odyssey

RePack

NEED FOR SPEED™ PAYBACK

3 сезон

9 сезон

Бесстыжие 9 сезон

Все сериалы

все сериалы на PB.wtf

RePack

FAR CRY 5
Ребята, катастрофически не хватает 7730р. для оплаты серверов за АВГУСТ (всвязи с блокировками трафик упал в 3 раза), 1-2р., выручайте.
  

Корабли викингов / The Long Ships (Джек Кардифф) [1964 г., Боевик, Приключения., DVDRip, MVO, лицензия] pb.wtf

Корабли викингов через торрент pb.wtf

Размер: 1.37 GB | Добавлен: 6 лет 10 мес. назад | Торрент скачан:74 раза
Скачать  

31-10-2012 13:21 Корабли викингов Скачать торрент  

Корабли викингов / The Long Ships

Год выпуска: 1964
Страна: Великобритания, Югославия.
Жанр: Боевик, Приключения.
Продолжительность: 02:00:34
Перевод: Профессиональный многоголосый, Лицензия

Режиссер: Джек Кардифф
Продюссер: Ирвинг Аллен, Дэнис О’Делл
Сценарий: Беркли Мазер, Беверли Кросс, Frans G. Bengtsson

Премьера в мире: 3 марта 1964

для любой зрительской аудитории
5.90 (1 154)
http://www.kinopoisk.ru/film/20570/

В ролях: Ричард Видмарк, Сидни Пуатье, Расс Тэмблин, Розанна Скьяффино, Оскар Хомолка, Эдвард Джадд, Лайонел Джеффрис, Беба Лончар, Клиффорд Эванс, Гордон Джексон, Колин Блэйкли, Дэвид Лодж, Генри Оскар, Пол Стэссино, Джинн Муди, Клифф Лайонс, Charles H. Radilak, Леонард Росситер, Ljubo Skiljevic, Драгомир Станоевич.

Описание: Храбрый скандинавский викинг Рольф узнаёт от мавританского принца Али Мансу (или Мансуха) легенду, рассказанную египетской рабыней, о том, что в дальних землях есть огромный золотой колокол, который все называют "мать всех голосов". Принц Али Мансу хочет обладать этим чудом и готов заплатить за него сколь угодно большую цену. Рольф отправляется на поиски чудо-колокола в дальние страны вместе со своим братом Ормом на большом корабле, полном воинов…

Качество: DVDRip
Формат: AVI
Видео кодек: DivX
Аудио кодек: MP3
Видео: MPEG-4 Visual, DIVX, 1359 Кбит/сек, 720х320 пикселей, 25,000 кадров/сек
Аудио#1: MPEG Audio, MP3 , 128 Кбит/сек, 2 канала(ов), 48,0 КГц, Russian
Аудио#2: MPEG Audio, MP3 , 128 Кбит/сек, 2 канала(ов), 48,0 КГц, English





Формат : AVI
Формат/Информация : Audio Video Interleave
Размер файла : 1,37 Гбайт
Продолжительность : 2 ч. 0 м.
Общий поток : 1629 Кбит/сек
Программа кодирования : VirtualDubModRus 1.5.10.2 (build 2542/release)
Библиотека кодирования : VirtualDubMod build 2542/release

Видео
Идентификатор : 0
Формат : MPEG-4 Visual
Профиль формата : Simple@L3
Параметр BVOP формата : 1
Параметр QPel формата : Нет
Параметр GMC формата : Без точки перехода
Параметр матрицы формата : Default (MPEG)
Режим смешивания : Сжатый битовый поток
Идентификатор кодека : DIVX
Идентификатор кодека/Информация : Project Mayo
Идентификатор кодека/Подсказка : DivX 4
Продолжительность : 2 ч. 0 м.
Битрейт : 1359 Кбит/сек
Ширина : 720 пикселей
Высота : 320 пикселей
Соотношение сторон : 2,2:1
Соотношение сторон в оригинале : 2,25:1
Частота кадров : 25,000 кадров/сек
Цветовое пространство : YUV
Субдискретизация насыщенности : 4:2:0
Битовая глубина : 8 бит
Тип развёртки : Прогрессивная
Метод сжатия : С потерями
Бит/(Пиксели*Кадры) : 0.236
Размер потока : 1,14 Гбайт (83%)
Библиотека кодирования : XviD 1.0.2 (UTC 2004-08-29)

Аудио #1
Идентификатор : 1
Формат : MPEG Audio
Версия формата : Version 1
Профиль формата : Layer 3
Режим : Joint stereo
Расширение режима : MS Stereo
Идентификатор кодека : 55
Идентификатор кодека/Подсказка : MP3
Продолжительность : 2 ч. 0 м.
Вид битрейта : Постоянный
Битрейт : 128 Кбит/сек
Каналы : 2 канала
Частота : 48,0 КГц
Метод сжатия : С потерями
Размер потока : 110 Мбайт (8%)
Выравнивание : Соединение по промежуткам
Продолжительность промежутка : 40 мс. (1,00 видеокадр)
Время предзагрузки промежутка : 504 мс.

Аудио #2
Идентификатор : 2
Формат : MPEG Audio
Версия формата : Version 1
Профиль формата : Layer 3
Режим : Joint stereo
Расширение режима : MS Stereo
Идентификатор кодека : 55
Идентификатор кодека/Подсказка : MP3
Продолжительность : 2 ч. 0 м.
Вид битрейта : Постоянный
Битрейт : 128 Кбит/сек
Каналы : 2 канала
Частота : 48,0 КГц
Метод сжатия : С потерями
Размер потока : 110 Мбайт (8%)
Выравнивание : Соединение по промежуткам
Продолжительность промежутка : 40 мс. (1,00 видеокадр)
Время предзагрузки промежутка : 504 мс.
Библиотека кодирования : LAME3.97
Настройки программы : -m j -V 4 -q 2 -b 128

pb.wtf



Скачать Корабли викингов через торрент http://pic.kartinco.top/images/1/14ih287dns.jpg Скачать фильм Корабли викингов через торрент бесплантно в хорошем качестве Описание: Храбрый скандинавский викинг Рольф узнаёт от мавританского принца Али Мансу (или Мансуха) легенду, рассказанную египетской ... 10 10 1
Info! Золотая раздача, скачанное не засчитывается.
Торрент: Зарегистрирован [2012-10-31 13:21] · скачан: 74 раз
Статус: √ проверено
Размер: 1.37 GB
Как cкачать? Как скачать Корабли викингов через торрент | qTorrent


>> Регистрируемся здесь <<






Отзывы и комментарии о схеме читаем и пишем здесь: ---> Отзывы и комментарии о схеме

Новые благодарочки в телеграм довольных пользователей:
скриншот   скриншот   скриншот   скриншот   скриншот

31-10-2012 14:10 Корабли викингов Скачать торрент  

спс...зазыримpb.wtf



    Дорогой пользователь! Огромная просьба, поблагодарите релизера, оцените раздачу и оставьте свои комментарий, если Вы скачали Корабли викингов через торрент бесплатно! Внесите свою лепту в развитие PiratBit!
    Комментировать посты могут только пользователи прошедшие не сложную регистрацию
    Показать сообщения:    

    Корабли викингов через торрент
    Скачать бесплатно Корабли викингов
    Корабли викингов скачать торрент
    Корабли викингов смотреть онлайн
    Cкачать фильм Корабли викингов бесплатно
    Корабли викингов скачать торрент в хорошем качестве
    Корабли викингов смотреть онлайн бесплатно в хорошем качестве


    Вы не можете начинать темы
    Вы не можете отвечать на сообщения
    Вы не можете редактировать свои сообщения
    Вы не можете удалять свои сообщения
    Вы не можете голосовать в опросах
    Вы не можете прикреплять файлы к сообщениям
    Вы можете скачивать файлы