Ссылка на приватное зеркало нашего сайта всего за 1$. Внимание количество ограничено!!!

2 сезон

iTunes

1 сезон

1

2 сезон

2 сезон

iTunes

1 сезон

RePack

30

Ultimate

ВАЖНО

ИГРА 18+

pack

RePack

MK11
pack

Забери бонус

RePack

jed

!!Акция!!

Alien_Rage

RePack

fifa19

RePack

Assassins Creed: Odyssey

RePack

NEED FOR SPEED™ PAYBACK

4 сезон

9 сезон

Бесстыжие 9 сезон

Все сериалы

все сериалы на PB.wtf

RePack

FAR CRY 5
  

Безумные Подростки Рокко / Rocco's Psycho Teens (Rocco Siffredi / Rocco Siffredi Produzione (Evil Angel).) [2012 г., Gonzo, Oral, Anal, Double Penetration, POV, Big Butts, Ass To Mouth, Squirt, Teens/Young Women., DVD5] pb.wtf

Безумные Подростки Рокко через торрент pb.wtf

Размер: 4.36 GB | Добавлен: 8 лет назад | Торрент скачан:564 раза
Скачать  

31-10-2012 17:38 Безумные Подростки Рокко Скачать торрент  

Безумные Подростки Рокко. / Rocco's Psycho Teens.

Год выпуска: 2012 г.
Страна: USA.
Жанр: Gonzo, Foreign, Oral, Anal, Gaping, Double Penetration, POV, Facial, Swallow, CumSwap, Big Butts, Ass To Mouth, Squirt, Teens/Young Women, Roleplaying, Group Sex, Threesome, Orgy, BDSM, Bondage, Lesbian, Toys, Big Cock, Hardcore, Europeans, Russian girls, Straight, Rocco's Psycho Teens Series.
Продолжительность: 02:46:04 (фильм) + 00:26:34 (бонус сцена) + 00:21:40 (др. бонусы).
Перевод: Оригинал.

Режиссер: Rocco Siffredi.
Студия: Rocco Siffredi Produzione (Evil Angel).

В ролях: Actresses -
Bella [Anal Bald CumSwap A2M]
Dulsineya [Anal Facial DP Bald A2M]
Jessica Neight [Anal Facial Bald]
Leony Dark (as Jessica Rox)
Lydia Love [Facial]
Tanya (as Rocky) [Anal Facial DP Bald A2M]
Jennifer (as Sara Luwis) [Anal Squirt Bald CumSwap]
Zorah White [Bald]
Actors - Chris Charming, Markus Tynai, Mike Angelo, Rocco Siffredi

Описание: True story Jessica Night's schoolgirl fantasy was to be in a scene with Rocco. She lived her dream, then told everyone at school. Now all of her classmates want to fuck her!
A porn legend and a true pervert, director/performer Rocco Siffredi has always sought the kind of young ladies who are not only totally gorgeous and promiscuous, but also a teensy bit koo-koo in the head! "Rocco's Psycho Teens" stars a nutty blend of beautiful girls with amazing sexual abilities and very few inhibitions.
First, the director discovers adorable Jessica Neight hiding in a bedroom. The wacky Euro-slut sucks his enormous cock while curious brunette Jessica Rox watches. Rocco fucks both horny babes and generously allows them to share his sperm. Next, a pair of blonde schoolgirls - mini-skirted Zorah White and bespectacled Lydia Love - molest private tutor Chris Charming, sucking his hard prick and riding him in a crazy and wild threesome. The teacher sprays Lydia with hot jizz, and Zorah licks her friend clean. Rocco and his buddy Markus ravish fetish-clad submissive Anastasia with big butt plugs and rectal toys, reaming her ass but good. Then the boys join brunette stunner Rocky and blonde Dulsineya for an anal orgy replete with dick sucking, ass rimming, double-penetration and two messy facials. The director enjoys an intimate blow job from sweet blonde Sara Luwis, and finally, stud Mike Angelo takes on skinny, naturally buxom Bella along with Sara in a nasty anal cluster-fuck. A girl doesn't need to be insane to be in Rocco's movies, but it helps. Rocco's teens might have a screw loose... but they're loose and they really like to screw!
Rocco Siffredi's "Rocco's Psycho Teens" is a single-disc DVD with behind-the-scenes footage, cumshot recap, photo galleries, cast list and filmographies.

Качество: DVD5.
Формат: AVI.
Видео кодек: MPEG2.
Аудио кодек: AC3.
Видео: 7000 Kbps, 29.970 fps, 720*480 (or 853*480 / 16:9), MPG2 = MPEG 2 (SVCD/DVD).
Аудио: 192 Kbps, 48000 Hz, 2 ch, 0x2000 = AC3 DVM [0x80].
Общее
Полное имя : Rocco's Psycho Teens (2012) DVD5VIDEO_TSVTS_07_1.VOB
Формат : MPEG-PS
Размер файла : 1024 Мбайт
Продолжительность : 47 м.
Режим общего битрейта : Переменный
Общий поток : 3002 Кбит/сек
Видео
Идентификатор : 224 (0xE0)
Формат : MPEG Video
Версия формата : Version 2
Профиль формата : Main@Main
Параметр BVOP формата : Да
Параметр матрицы формата : По умолчанию
Параметр GOP формата : M=3, N=12
Продолжительность : 47 м.
Вид битрейта : Переменный
Битрейт : 2750 Кбит/сек
Максимальный битрейт : 7000 Кбит/сек
Ширина : 720 пикселей
Высота : 480 пикселей
Соотношение сторон : 16:9
Частота кадров : 29,970 кадров/сек
Стандарт вещания : NTSC
Цветовое пространство : YUV
Субдискретизация насыщенности : 4:2:0
Битовая глубина : 8 бит
Тип развёртки : Чересстрочная
Порядок развёртки : Нижнее поле первое
Метод сжатия : С потерями
Бит/(Пиксели*Кадры) : 0.266
Размер потока : 938 Мбайт (92%)
Аудио
Идентификатор : 189 (0xBD)-128 (0x80)
Формат : AC-3
Формат/Информация : Audio Coding 3
Расширение режима : CM (complete main)
Параметр Endianness формата : Big
Режим смешивания : DVD-Video
Продолжительность : 47 м.
Вид битрейта : Постоянный
Битрейт : 192 Кбит/сек
Каналы : 2 канала
Расположение каналов : Front: L R
Частота : 48,0 КГц
Битовая глубина : 16 бит
Метод сжатия : С потерями
Задержка видео : -67 мс.
Размер потока : 65,5 Мбайт (6%)
Меню

pb.wtf



pack Скачать Безумные Подростки Рокко через торрент http://pic.kartinco.top/images/1/9fy61nseu2.jpg Скачать фильм Безумные Подростки Рокко через торрент бесплантно в хорошем качестве Описание: True story Jessica Night's schoolgirl fantasy was to be in a scene with Rocco. She lived her dream, then told everyone at school. ... 10 10 10
Info! Золотая раздача, скачанное не засчитывается.
Торрент: Зарегистрирован [2012-10-31 17:38] · скачан: 564 раз
Статус: √ проверено
Размер: 4.36 GB
Как cкачать? Как скачать Безумные Подростки Рокко через торрент | qTorrent

28-11-2019 20:33  

Отключить всю рекламу на сайте

    Дорогой пользователь! Огромная просьба, поблагодарите релизера, оцените раздачу и оставьте свои комментарий, если Вы скачали Безумные Подростки Рокко через торрент бесплатно! Внесите свою лепту в развитие PiratBit!
    Комментировать посты могут только пользователи прошедшие не сложную регистрацию
    Показать сообщения:    

    Безумные Подростки Рокко через торрент
    Скачать бесплатно Безумные Подростки Рокко
    Безумные Подростки Рокко скачать торрент
    Безумные Подростки Рокко смотреть онлайн
    Cкачать фильм Безумные Подростки Рокко бесплатно
    Безумные Подростки Рокко скачать торрент в хорошем качестве
    Безумные Подростки Рокко смотреть онлайн бесплатно в хорошем качестве


    Вы не можете начинать темы
    Вы не можете отвечать на сообщения
    Вы не можете редактировать свои сообщения
    Вы не можете удалять свои сообщения
    Вы не можете голосовать в опросах
    Вы не можете прикреплять файлы к сообщениям
    Вы можете скачивать файлы