Всегда рабочее зеркало без VPN и Proxy просто перед .vidak.icu напиши любое слово или цифру, Пример http://qa89.vidak.icu

MVO

MVO

1 сезон

1

1 сезон

iTunes

1 сезон

13

1 сезон

Deluxe

pack

Рекомендуем

Repack

30

ВАЖНО

RePack

MK11

RePack

jed

RePack

fifa19

RePack

RDR2

RePack

NEED FOR SPEED™ PAYBACK

Кинопоиск HD

6 сезон

 Острые козырьки 6 сезон

Все сериалы

все сериалы на PB.wtf

RePack

FAR CRY 5
  
Magnet ссылка

Девушка с татуировкой дракона 1,2,3 / Man som hatar kvinnor 1,2,3 (Нильс Арден Оплев) [2009 г., триллер, драма, криминал, детектив, BDRip , DUB, лицензия] pb.wtf

Девушка с татуировкой дракона 1,2,3 через торрент pb.wtf

Качают: 1 [ 0 KB/s ]
Размер: 4.09 GB | Добавлен: 9 лет 9 мес. назад | Торрент скачан:419 раз
Смотреть онлайн Девушка с татуировкой дракона 1,2,3 | Скачать    Ребята, помогите собрать деньги на оплату серверов!!!

01-11-2012 14:26 Девушка с татуировкой дракона 1,2,3 Скачать торрент  

Девушка с татуировкой дракона/ Man som hatar kvinnor

Год выпуска: 2009
Страна: Швеция
Жанр: триллер, драма, криминал, детектив
Продолжительность: 147 мин. / 02:27
Перевод: Дубляж, Лицензия

Режиссер: Нильс Арден Оплев
Продюссер: Сорен Стэмозе, Сьюзанн Биллберг-Ридхольм, Анни Форби Фернандез
Сценарий: Николай Арсел, Расмус Хейстерберг, Стиг Ларссон

Мировой рейтинг IMDB 7.80 (97 257)


В ролях: Микаэл Нюквист, Нуми Рапас, Питер Абер, Свен-Бертиль Таубе, Петер Андерссон, Ингвар Хирдвалль, Марика Лагеркранц, Лена Эндре, Бьёрн Гранат, Ева Фрёлинг, Илья Хвостиков, Наталья Грачева, Владимир Антоник, Владимир Левашев, Александр Коврижных

Описание: Микаэль Блумквист — талантливый журналист, который верой и правдой добивается справедливости в самых скандальных делах — неожиданно терпит фиаско в своей деятельности, в результате чего вынужден отбыть срок лишения свободы.В то же время влиятельный человек Хенрик Вангер поручает ему дело о пропаже его племянницы, которая таинственным образом исчезла из имения Вангеров и о которой вот уже множество лет нет никаких новостей. А попытки Хенрика разыскать родственницу также не приводят к положительным результатам.Будучи скептиком, Микаэль сначала не верит в удачу, но вскоре обнаруживает запутанную и леденящую кровь историю, связанную с семейством Вангеров. В этом журналисту помогает неформальная особа Лисбет Саландер, прослывшая не только гениальным умом, фотографической памятью, но и прекрасными хакерскими способностями.

Качество: BDRip
Формат: AVI
Видео кодек: H264
Аудио кодек: MP3
Видео: H264 , 1280х544, 932 Kbps , 24.000 fps ,
Аудио: MP3 , 320 Kbps , 2 ch, 44.1 KHz ,stereo
Format : AVI
Format/Info : Audio Video Interleave
Format profile : OpenDML
File size : 1.35 GiB
Duration : 2h 32mn
Overall bit rate mode : Variable
Overall bit rate : 1 266 Kbps
Writing application : Lavf51.12.1

Video
ID : 0
Format : AVC
Format/Info : Advanced Video Codec
Format profile : [email protected]
Format settings, CABAC : No
Format settings, ReFrames : 1 frame
Format settings, GOP : M=1, N=12
Codec ID : H264
Duration : 2h 32mn
Bit rate mode : Variable
Bit rate : 932 Kbps
Maximum bit rate : 1 396 Kbps
Width : 1 280 pixels
Height : 544 pixels
Display aspect ratio : 2.35:1
Frame rate : 24.000 fps
Color space : YUV
Chroma subsampling : 4:2:0
Bit depth : 8 bits
Scan type : Progressive
Bits/(Pixel*Frame) : 0.056
Stream size : 1 018 MiB (74%)

Audio
ID : 1
Format : MPEG Audio
Format version : Version 1
Format profile : Layer 3
Mode : Joint stereo
Codec ID : 55
Codec ID/Hint : MP3
Duration : 2h 32mn
Bit rate mode : Constant
Bit rate : 320 Kbps
Channel(s) : 2 channels
Sampling rate : 44.1 KHz
Compression mode : Lossy
Stream size : 350 MiB (25%)
Alignment : Aligned on interleaves
Interleave, duration : 26 ms (0.63 video frame)
Writing library : LAME3.97
Девушка, которая играла с огнем / Flickan som lekte med elden

Год выпуска: 2009
Страна: Швеция
Жанр: триллер, драма, криминал, детектив
Продолжительность: 124 мин. / 02:04
Перевод: Дубляж, Лицензия

Режиссер: Дэниэл Альфредсон
Продюссер: Анни Форби Фернандез, Дженни Гилбертссон, Лоне Корслунд
Сценарий: Йонас Фрикберг, Стиг Ларссон

Мировой рейтинг IMDB 7.00 (39 046)


В ролях: Микаэл Нюквист, Нуми Рапас, Лена Эндре, Петер Андерссон, Михалис Куцогиннакис, Анника Халлин, София Ледарп, Джейкоб Эрикссон, Рубен Сэллмендер, Ясмин Гарби

Описание: Поздно вечером в своей квартире застрелены журналист и его подруга — люди, изучавшие каналы поставки в Швецию секс-рабынь из Восточной Европы. Среди клиентов малопочтенного бизнеса замечены представители властных структур. Кажется очевидным, каким кругам была выгодна смерть этих двоих. Микаэл Блумквист начинает собственное расследование гибели своих коллег и друзей и вдруг узнает, что в убийстве подозревают его давнюю знакомую Лисбет Саландер, самую странную девушку на свете, склонную играть с огнем — к примеру, заливать его бензином. По всей Швеции идет охота на «убийцу-психопатку», но Лисбет не боится бросить вызов кому угодно — и мафии, и общественным структурам, и самой смерти.

Качество: BDRip
Формат: AVI
Видео кодек: H264
Аудио кодек: MP3
Видео: H264 , 720х400, 1 269 Kbps , 25.000 fps
Аудио: MP3 , 320 Kbps , 2 ch, 44.1 KHz ,stereo
Format : AVI
Format/Info : Audio Video Interleave
Format profile : OpenDML
File size : 1.39 GiB
Duration : 2h 4mn
Overall bit rate mode : Variable
Overall bit rate : 1 603 Kbps
Writing application : Lavf51.12.1

Video
ID : 0
Format : AVC
Format/Info : Advanced Video Codec
Format profile : [email protected]
Format settings, CABAC : No
Format settings, ReFrames : 1 frame
Format settings, GOP : M=1, N=12
Codec ID : H264
Duration : 2h 4mn
Bit rate mode : Variable
Bit rate : 1 269 Kbps
Maximum bit rate : 1 827 Kbps
Width : 720 pixels
Height : 400 pixels
Display aspect ratio : 16:9
Frame rate : 25.000 fps
Original frame rate : 24.000 fps
Color space : YUV
Chroma subsampling : 4:2:0
Bit depth : 8 bits
Scan type : Progressive
Bits/(Pixel*Frame) : 0.176
Stream size : 1.10 GiB (79%)

Audio
ID : 1
Format : MPEG Audio
Format version : Version 1
Format profile : Layer 3
Mode : Joint stereo
Mode extension : MS Stereo
Codec ID : 55
Codec ID/Hint : MP3
Duration : 2h 4mn
Bit rate mode : Constant
Bit rate : 320 Kbps
Channel(s) : 2 channels
Sampling rate : 44.1 KHz
Compression mode : Lossy
Stream size : 284 MiB (20%)
Alignment : Aligned on interleaves
Interleave, duration : 26 ms (0.65 video frame)
Interleave, preload duration : 26 ms
Writing library : LAME3.97
Девушка, которая взрывала воздушные замки / The Girl Who Kicked the Hornets' Nest

Год выпуска: 2009
Страна: Швеция
Жанр: триллер, драма, криминал
Продолжительность: 147 мин. / 02:27
Перевод: Дубляж, Лицензия

Режиссер: Дэниэл Альфредсон
Продюссер: Сорен Стэмозе, Клаус Бассинер, Оле Сонберг
Сценарий: Ульф Рюберг, Стиг Ларссон

Мировой рейтинг IMDB 7.10 (25 620)


В ролях: Микаэл Нюквист, Нуми Рапас, Лена Эндре, Анника Халлин, Джейкоб Эрикссон, София Ледарп, Андерс Албом, Мике Шпрейц, Георги Стайков, Мирья Турестедт

Описание: Лисбет Саландер находится под неусыпным наблюдением в отделении интенсивной терапии шведской городской больницы. Она борется за жизнь и не только в физическом смысле: когда она почувствует себя достаточно хорошо, ей предстоит предстать перед судом по обвинению в трех убийствах и в покушении еще на одно. С помощью своего друга, журналиста Микаэля Блумквиста, она должна будет доказать свою невиновность и опознать продажных политиканов, из-за злоупотреблений которых страдают простые люди. А со своей стороны она готовится отомстить человеку, который пробовал убить ее и правительственным учреждениям, которые почти разрушили ее жизнь. Когда-то она была жертвой. Теперь Лисбет Саландер готова ответить ударом на удар.

Качество: BDRip
Формат: AVI
Видео кодек: H264
Аудио кодек: MP3
Видео: H264 , 688х384, 983 Kbps , 24.000 fps
Аудио: MP3 , 320 Kbps , 2 ch, 44.1 KHz ,stereo
Format : AVI
Format/Info : Audio Video Interleave
Format profile : OpenDML
File size : 1.35 GiB
Duration : 2h 26mn
Overall bit rate mode : Variable
Overall bit rate : 1 317 Kbps
Writing application : Lavf51.12.1

Video
ID : 0
Format : AVC
Format/Info : Advanced Video Codec
Format profile : [email protected]
Format settings, CABAC : No
Format settings, ReFrames : 1 frame
Format settings, GOP : M=1, N=12
Codec ID : H264
Duration : 2h 26mn
Bit rate mode : Variable
Bit rate : 983 Kbps
Maximum bit rate : 1 473 Kbps
Width : 688 pixels
Height : 384 pixels
Display aspect ratio : 16:9
Frame rate : 24.000 fps
Color space : YUV
Chroma subsampling : 4:2:0
Bit depth : 8 bits
Scan type : Progressive
Bits/(Pixel*Frame) : 0.155
Stream size : 1.01 GiB (75%)

Audio
ID : 1
Format : MPEG Audio
Format version : Version 1
Format profile : Layer 3
Mode : Joint stereo
Mode extension : MS Stereo
Codec ID : 55
Codec ID/Hint : MP3
Duration : 2h 26mn
Bit rate mode : Constant
Bit rate : 320 Kbps
Channel(s) : 2 channels
Sampling rate : 44.1 KHz
Compression mode : Lossy
Stream size : 336 MiB (24%)
Alignment : Aligned on interleaves
Interleave, duration : 26 ms (0.63 video frame)
Interleave, preload duration : 26 ms
Writing library : LAME3.97
pb.wtf



Скачать Девушка с татуировкой дракона 1,2,3 через торрент https://pic1.kartinco.top/images/111/14jbf6sk1g.jpg Скачать, смотреть онлайн Девушка с татуировкой дракона 1,2,3 бесплантно в хорошем качестве Описание: Микаэль Блумквист — талантливый журналист, который верой и правдой добивается справедливости в самых скандальных делах — ... 10 10 23
Info! Золотая раздача, скачанное не засчитывается.
Торрент: Зарегистрирован [2012-11-01 14:26] · скачан: 419 раз
Статус: √ проверено
Размер: 4.09 GB
Как cкачать? Как скачать Девушка с татуировкой дракона 1,2,3 через торрент | UTorrent



Последний раз редактировалось: koolvasa (2019-01-27 04:12), всего редактировалось 4 раз(а)

28-11-2019 20:33  

Отключить вcю реклaмy на сайте

04-11-2013 12:27 Девушка с татуировкой дракона 1,2,3 Скачать торрент  

Встаньте на раздачу, будьте добры!pb.wtf



05-11-2013 17:37 Девушка с татуировкой дракона 1,2,3 Скачать торрент  

Плиз, кто-нибудь!! Люди!!! Станьте на раздачу!!!pb.wtf



06-11-2013 16:18 Девушка с татуировкой дракона 1,2,3 Скачать торрент  

Станьте, пожалуйста, на раздачу. Вчера докачать не успел. Несчастных 400 метров осталось.pb.wtf



06-11-2013 16:33 Девушка с татуировкой дракона 1,2,3 Скачать торрент  

Огромное спасибо!!!pb.wtf



30-11-2013 17:13 Девушка с татуировкой дракона 1,2,3 Скачать торрент  

Спасибо большое!!!!!! pb.wtf



01-11-2014 07:26 Девушка с татуировкой дракона 1,2,3 Скачать торрент  

Встаньте на раздачу пож.pb.wtf



08-11-2018 15:12 Девушка с татуировкой дракона 1,2,3 Скачать торрент  

дайте скорости, спасибоpb.wtf



18-11-2018 11:02 Девушка с татуировкой дракона 1,2,3 Скачать торрент  

дайте скоростиpb.wtf



27-12-2018 05:30 Девушка с татуировкой дракона 1,2,3 Скачать торрент  

Цитата:

Девушка с татуировкой дракона 1,2,3 / Man som hatar kvinnor 1,2,3 (Нильс Арден Оплев) [2009 г., триллер, драма, криминал, детектив, BDRip , DUB, лицензия]

Релиз удалил с компа,если надо то заново пересаберу в такой-же размер.pb.wtf



27-12-2018 05:33 Девушка с татуировкой дракона 1,2,3 Скачать торрент  

koolvasa писал(а):

Цитата:

Девушка с татуировкой дракона 1,2,3 / Man som hatar kvinnor 1,2,3 (Нильс Арден Оплев) [2009 г., триллер, драма, криминал, детектив, BDRip , DUB, лицензия]

Релиз удалил с компа,если надо то заново пересаберу в такой-же размер.

На трекере есть похожие релизы.pb.wtf



28-12-2018 10:14 Девушка с татуировкой дракона 1,2,3 Скачать торрент  

встаньте на раздачу, плизpb.wtf



    Дорогой пользователь! Огромная просьба, поблагодарите релизера, оцените раздачу и оставьте свои комментарий, если Вы скачали Девушка с татуировкой дракона 1,2,3 через торрент бесплатно!
    Комментировать посты могут только пользователи прошедшие не сложную регистрацию
    Показать сообщения:    

    Девушка с татуировкой дракона 1,2,3 через торрент
    Скачать бесплатно Девушка с татуировкой дракона 1,2,3
    Девушка с татуировкой дракона 1,2,3 скачать торрент
    Девушка с татуировкой дракона 1,2,3 смотреть онлайн
    Cкачать фильм Девушка с татуировкой дракона 1,2,3 бесплатно
    Девушка с татуировкой дракона 1,2,3 скачать торрент в хорошем качестве
    Девушка с татуировкой дракона 1,2,3 смотреть онлайн бесплатно в хорошем качестве


    Вы не можете начинать темы
    Вы не можете отвечать на сообщения
    Вы не можете редактировать свои сообщения
    Вы не можете удалять свои сообщения
    Вы не можете голосовать в опросах
    Вы не можете прикреплять файлы к сообщениям
    Вы можете скачивать файлы