Ссылка на приватное зеркало нашего сайта всего за 1$. Внимание количество ограничено!!!

2 сезон

iTunes

1 сезон

1

iTunes

iTunes

iTunes

1 сезон

RePack

30

ИГРА 18+

pack

ВАЖНО

!!Акция!!

Alien_RageХит недели

RePack

MK11
pack

Забери бонус

RePack

jed

!!Акция!!

Alien_Rage

RePack

fifa19

RePack

Assassins Creed: Odyssey

RePack

NEED FOR SPEED™ PAYBACK

4 сезон

9 сезон

Бесстыжие 9 сезон

Все сериалы

все сериалы на PB.wtf

RePack

FAR CRY 5
  

Интернэшнл / The International (Том Тыквер) [2008 г., боевик, триллер, криминал, детектив, BDRip 1080p, DUB] pb.wtf

Интернэшнл через торрент pb.wtf

Качают: 1 [ 0 KB/s ]
Размер: 4.36 GB | Добавлен: 7 лет 11 мес. назад | Торрент скачан:83 раза
Скачать  

03-11-2012 09:00 Интернэшнл Скачать торрент  

Интернэшнл / The International
Год выпуска: 2008
Страна: США
Жанр: боевик, триллер, криминал, детектив
Продолжительность: 01:58:02
Перевод: Дубляж
Субтитры: Russian, English (srt)
Режиссер: Том Тыквер
Продюссер: Ллойд Филлипс, Чарльз Ровен, Ричард Сакл
Сценарий: Эрик Сингер
Бюджет: $50 000 000
Премьера в мире: 5 февраля 2009
MPAA лицам до 17 лет обязательно присутствие взрослого
Мировой рейтинг IMDB 6.50 (54 138)

В ролях: Клайв Оуэн, Наоми Уоттс, Армин Мюллер-Шталь, Ульрих Томсен, Брайан Ф. О’Бирн, Майкл Волетти, Патрик Балади, Джей Вильерс, Фабрис Скотт, Халук Бильгинер
Описание: Перед Агентом Интерпола Льюис Сэлинджером и ассистентом по юридическим вопросам Элеонор Витман поставлена задача — предать правосудию один из наиболее могущественных банков мира. Собирая доказательства нелегальных операций, включая отмывание денег, торговлю оружием, вплоть до дестабилизации правительственных структур, агенты проводят расследование от Берлина до Милана, от Нью-Йорка до Стамбула.

Оказавшись в эпицентре игры по-крупному, непреклонная настойчивость и жажда справедливости вынуждают их поставить на карту все, в том числе собственные жизни. Ведь банк не остановится ни перед чем — даже перед убийством — чтобы продолжить финансирование войны и террора. Но банк — лишь вершина айсберга в глобальной коррупционной системе…
Качество: BDRip 1080p
Формат: MKV
Видео кодек: H.264x
Аудио кодек: AC3
Видео: AVC at 4597 Кбит/сек : 1920 x 800 (2.400) at 23.976 fps
Аудио#1: AC-3 at 384 Кбит/сек : 6 каналов, 48,0 КГц Language : ru
Аудио#2: AC-3 at 320 Кбит/сек : 6 каналов, 48,0 КГц Language : en

Код:

Общее
Уникальный идентификатор                 : 198275070908197776670988321108952519995 (0x952A63BEB5DE08BF91018DDA20DA953B)
Полное имя                               : C:UsersСлавонDesktopНовая папкаThe International(2009) BDRip720p-F.HD.mkv
Формат                                   : Matroska
Версия формата                           : Version 2
Размер файла                             : 4,36 Гбайт
Продолжительность                        : 1 ч. 58 м.
Общий поток                              : 5284 Кбит/сек
Дата кодирования                         : UTC 2012-03-31 12:16:34
Программа кодирования                    : mkvmerge v5.4.0 ('Piper') built on Mar 10 2012 13:34:39
Библиотека кодирования                   : libebml v1.2.3 + libmatroska v1.3.0

Видео
Идентификатор                            : 1
Формат                                   : AVC
Формат/Информация                        : Advanced Video Codec
Профиль формата                          : High@L4.1
Параметр CABAC формата                   : Да
Параметр ReFrames формата                : 5 кадров
Идентификатор кодека                     : V_MPEG4/ISO/AVC
Продолжительность                        : 1 ч. 58 м.
Битрейт                                  : 4597 Кбит/сек
Ширина                                   : 1920 пикселей
Высота                                   : 800 пикселей
Соотношение сторон                       : 2,40:1
Режим частоты кадров                     : Постоянный
Частота кадров                           : 23,976 кадра/сек
Цветовое пространство                    : YUV
Субдискретизация насыщенности            : 4:2:0
Битовая глубина                          : 8 бит
Тип развёртки                            : Прогрессивная
Бит/(Пиксели*Кадры)                      : 0.125
Размер потока                            : 3,69 Гбайт (85%)
Заголовок                                : FREEISLAND
Библиотека кодирования                   : x264 core 122 r2184 5c85e0a
Настройки программы                      : cabac=1 / ref=5 / deblock=1:-3:-3 / analyse=0x3:0x113 / me=umh / subme=11 / psy=1 / psy_rd=1.10:0.10 / mixed_ref=1 / me_range=48 / chroma_me=1 / trellis=2 / 8x8dct=1 / cqm=0 / deadzone=21,11 / fast_pskip=0 / chroma_qp_offset=-3 / threads=6 / sliced_threads=0 / nr=0 / decimate=0 / interlaced=0 / bluray_compat=0 / constrained_intra=0 / bframes=9 / b_pyramid=2 / b_adapt=2 / b_bias=0 / direct=3 / weightb=1 / open_gop=0 / weightp=2 / keyint=240 / keyint_min=22 / scenecut=40 / intra_refresh=0 / rc=2pass / mbtree=0 / bitrate=4597 / ratetol=1.0 / qcomp=0.70 / qpmin=0 / qpmax=69 / qpstep=4 / cplxblur=20.0 / qblur=0.5 / ip_ratio=1.40 / pb_ratio=1.30 / aq=2:0.80
Язык                                     : English
Default                                  : Да
Forced                                   : Нет
Основные цвета                           : BT.709
Характеристики трансфера                 : BT.709
Коэффициенты матрицы                     : BT.709

Аудио #1
Идентификатор                            : 2
Формат                                   : AC-3
Формат/Информация                        : Audio Coding 3
Расширение режима                        : CM (complete main)
Параметр Endianness формата              : Big
Идентификатор кодека                     : A_AC3
Продолжительность                        : 1 ч. 58 м.
Вид битрейта                             : Постоянный
Битрейт                                  : 384 Кбит/сек
Каналы                                   : 6 каналов
Расположение каналов                     : Front: L C R, Side: L R, LFE
Частота                                  : 48,0 КГц
Битовая глубина                          : 16 бит
Метод сжатия                             : С потерями
Размер потока                            : 324 Мбайт (7%)
Язык                                     : Russian
Default                                  : Да
Forced                                   : Нет

Аудио #2
Идентификатор                            : 3
Формат                                   : AC-3
Формат/Информация                        : Audio Coding 3
Расширение режима                        : CM (complete main)
Параметр Endianness формата              : Big
Идентификатор кодека                     : A_AC3
Продолжительность                        : 1 ч. 58 м.
Вид битрейта                             : Постоянный
Битрейт                                  : 320 Кбит/сек
Каналы                                   : 6 каналов
Расположение каналов                     : Front: L C R, Side: L R, LFE
Частота                                  : 48,0 КГц
Битовая глубина                          : 16 бит
Метод сжатия                             : С потерями
Размер потока                            : 270 Мбайт (6%)
Язык                                     : English
Default                                  : Нет
Forced                                   : Нет

Текст #1
Идентификатор                            : 4
Формат                                   : UTF-8
Идентификатор кодека                     : S_TEXT/UTF8
Идентификатор кодека/Информация          : UTF-8 Plain Text
Язык                                     : Russian
Default                                  : Да
Forced                                   : Нет

Текст #2
Идентификатор                            : 5
Формат                                   : UTF-8
Идентификатор кодека                     : S_TEXT/UTF8
Идентификатор кодека/Информация          : UTF-8 Plain Text
Язык                                     : Russian
Default                                  : Нет
Forced                                   : Нет

Текст #3
Идентификатор                            : 6
Формат                                   : UTF-8
Идентификатор кодека                     : S_TEXT/UTF8
Идентификатор кодека/Информация          : UTF-8 Plain Text
Язык                                     : English
Default                                  : Нет
Forced                                   : Нет

Меню
00:00:00.000                             : en:Chapter 01
00:00:45.295                             : en:Chapter 02
00:04:20.802                             : en:Chapter 03
00:06:43.319                             : en:Chapter 04
00:13:15.419                             : en:Chapter 05
00:16:03.545                             : en:Chapter 06
00:22:35.479                             : en:Chapter 07
00:30:34.874                             : en:Chapter 08
00:40:22.086                             : en:Chapter 09
00:42:48.399                             : en:Chapter 10
00:48:35.078                             : en:Chapter 11
00:53:22.991                             : en:Chapter 12
00:55:53.975                             : en:Chapter 13
01:05:44.649                             : en:Chapter 14
01:08:21.263                             : en:Chapter 15
01:22:19.142                             : en:Chapter 16
01:27:39.837                             : en:Chapter 17
01:33:56.339                             : en:Chapter 18
01:38:54.970                             : en:Chapter 19
01:41:34.129                             : en:Chapter 20
01:44:55.080                             : en:Chapter 21



Интернэшнл скачать торрент


pb.wtf



Скачать Интернэшнл через торрент http://pic.kartinco.top/images/1/yvgudjjyz3.jpg Скачать фильм Интернэшнл через торрент бесплантно в хорошем качестве Описание: Перед Агентом Интерпола Льюис Сэлинджером и ассистентом по юридическим вопросам Элеонор Витман поставлена задача — предать ... 5 10 1
Info! Золотая раздача, скачанное не засчитывается.
Торрент: Зарегистрирован [2012-11-03 09:00] · скачан: 83 раз
Статус: √ проверено
Размер: 4.36 GB
Как cкачать? Как скачать Интернэшнл через торрент | qTorrent

% Раздел Тема Автор DL S | L
Фильмы с авторской озвучкой [ 2.19 GB ] Интернэшнл / The International [2009 HDRip] 2x[AVO] killermax2013 Скачать
1 | 0
Фильмы 2009 [ 1.86 GB ] Интернэшнл / International The [2009 HDRip лицензия] Lil Badun Скачать
1 | 0
Фильмы 2009 [ 748 MB ] Интернэшнл / The International [2009 HDRip] karimansky Скачать
1 | 0
Фильмы 2009 [ 1.31 GB ] Интернэшнл / International The [2009 DVDRip] lehaha Скачать
1 | 0

28-11-2019 20:33  

Отключить всю рекламу на сайте

03-11-2012 09:55 Интернэшнл Скачать торрент  

подскажите пожалуйста почему не открываеться спойлер со скриеами,может у меня проблема с браузером?pb.wtf



03-11-2012 09:56 Интернэшнл Скачать торрент  

jingles писал(а):

подскажите пожалуйста почему не открываеться спойлер со скриеами,может у меня проблема с браузером?

у меня всё отличноpb.wtf



07-11-2012 13:45 Интернэшнл Скачать торрент  

Подскажите как фильм смотреть можно?pb.wtf



    Дорогой пользователь! Огромная просьба, поблагодарите релизера, оцените раздачу и оставьте свои комментарий, если Вы скачали Интернэшнл через торрент бесплатно! Внесите свою лепту в развитие PiratBit!
    Комментировать посты могут только пользователи прошедшие не сложную регистрацию
    Показать сообщения:    

    Интернэшнл через торрент
    Скачать бесплатно Интернэшнл
    Интернэшнл скачать торрент
    Интернэшнл смотреть онлайн
    Cкачать фильм Интернэшнл бесплатно
    Интернэшнл скачать торрент в хорошем качестве
    Интернэшнл смотреть онлайн бесплатно в хорошем качестве


    Вы не можете начинать темы
    Вы не можете отвечать на сообщения
    Вы не можете редактировать свои сообщения
    Вы не можете удалять свои сообщения
    Вы не можете голосовать в опросах
    Вы не можете прикреплять файлы к сообщениям
    Вы можете скачивать файлы