новый адрес
Ссылка на приватное зеркало всего за 1$. Внимание количество ограничено!!!

iTunes

1+1

iTunes

мы

WEB-DL

1

iTunes

Чернобыль

iTunes

Ральф против интернета

Лицензия

ПШазам

Лицензия

Оно 2

Лицензия

30
pack

Вам бонус

ВАЖНО

!!Акция!!

Alien_RageХит недели

RePack

Resident Evil 21

ИГРА 18+

pack

RePack

jed

!!Акция!!

Alien_Rage

RePack

fifa19

RePack

Assassins Creed: Odyssey

RePack

NEED FOR SPEED™ PAYBACK

3 сезон

9 сезон

Бесстыжие 9 сезон

Все сериалы

все сериалы на PB.wtf

RePack

FAR CRY 5
Ребята, катастрофически не хватает 1900р. для оплаты серверов за Октябрь (всвязи с блокировками трафик упал в 3 раза), 1-2р., выручайте.
  

Я устал от тебя / I Melt with You (Марк Пеллингтон) [2011 г., драма, HDRip, MVO, лицензия] pb.wtf

Я устал от тебя через торрент pb.wtf

Размер: 2.05 GB | Добавлен: 7 лет 1 мес. назад | Торрент скачан:81 раз
Скачать  

04-11-2012 14:33 Я устал от тебя Скачать торрент  

Я устал от тебя / I Melt with You

Год выпуска: 2011
Страна: США
Жанр: драма
Продолжительность: 02:02:26
Перевод: Профессиональный многоголосый, Лицензия
Тип релиза: Лицензия

Режиссер: Марк Пеллингтон
Продюссер: Норман Рейсс, Роб Кауэн, Майкл Кауэн
Сценарий: Гленн Портер, Марк Пеллингтон

Премьера в мире: 26 января 2011



В ролях: Томас Джейн, Джереми Пивен, Роб Лоу, Кристиан МакКэй, Карла Гуджино, Том Бауэр, Ариэль Кеббел, Зандер Экхаус, Абхи Синха, Саша Грэй

Описание: Ричард, Рон, Джонатан и Тим вместе учились в колледже и остались друзьями на всю жизнь. У них есть традиция — каждый год на одну неделю они собираются на арендованной вилле на берегу моря и отрываются по полной. Сейчас им уже за сорок, и они снова встретились на ритуальном мальчишнике. Программа большая: оглушающий рок-н-ролл, наркотики горстями, виски стаканами, случайные девушки табуном, треп за жизнь — дни и ночи напролет.

Качество: HDRip
Формат: AVI
Видео кодек: XviD
Аудио кодек: AC3
Видео: 720x304 (2.37:1), 23.976 fps, XviD build 73 ~2007 kbps avg, 0.38 bit/pixel
Аудио#1: 48 kHz, AC3 Dolby Digital, 3/2 (L,C,R,l,r) + LFE ch, ~384 kbps
Релиз от:

General
Complete name : H:киноYa.ustal.ot.tebya.2011.P.HDRip.avi
Format : AVI
Format/Info : Audio Video Interleave
Format profile : OpenDML
File size : 2.05 GiB
Duration : 2h 2mn
Overall bit rate : 2 399 Kbps
Movie name : Ya.ustal.ot.tebya.2011.P.HDRip.IRONCLUB
Director : IRONCLUB
Genre : Drama
Writing application : VirtualDubMod 1.5.10.2 (build 2540/release)
Original source form/Name : Movie
Copyright : http://ironclub.tv/

Video
ID : 0
Format : MPEG-4 Visual
Format profile : Advanced Simple@L5
Format settings, BVOP : 2
Format settings, QPel : No
Format settings, GMC : No warppoints
Format settings, Matrix : Custom
Codec ID : XVID
Codec ID/Hint : XviD
Duration : 2h 2mn
Bit rate : 2 003 Kbps
Width : 720 pixels
Height : 304 pixels
Display aspect ratio : 2.35:1
Frame rate : 23.976 fps
Color space : YUV
Chroma subsampling : 4:2:0
Bit depth : 8 bits
Scan type : Progressive
Compression mode : Lossy
Bits/(Pixel*Frame) : 0.382
Stream size : 1.71 GiB (83%)
Writing library : XviD 73

Audio
ID : 1
Format : AC-3
Format/Info : Audio Coding 3
Mode extension : CM (complete main)
Codec ID : 2000
Duration : 2h 2mn
Bit rate mode : Constant
Bit rate : 384 Kbps
Channel(s) : 6 channels
Channel positions : Front: L C R, Side: L R, LFE
Sampling rate : 48.0 KHz
Bit depth : 16 bits
Compression mode : Lossy
Stream size : 336 MiB (16%)
Alignment : Split accross interleaves
Interleave, duration : 42 ms (1.00 video frame)
Interleave, preload duration : 500 ms

pb.wtf



Скачать Я устал от тебя через торрент http://pic.kartinco.top/images/1/c34rmtwk88.png Скачать фильм Я устал от тебя через торрент бесплантно в хорошем качестве Описание: Ричард, Рон, Джонатан и Тим вместе учились в колледже и остались друзьями на всю жизнь. У них есть традиция — каждый год на одну ... 5 10 1
Info! Золотая раздача, скачанное не засчитывается.
Торрент: Зарегистрирован [2012-11-04 14:33] · скачан: 81 раз
Статус: √ проверено
Размер: 2.05 GB
Как cкачать? Как скачать Я устал от тебя через торрент | qTorrent

% Раздел Тема Автор DL S | L
Арт-хаус и авторское кино [ 2.05 GB ] Я устал от тебя / I Melt with You [2011 HDRip MVO] -=Cherry=- Скачать
1 | 0
Арт-хаус и авторское кино [ 747 MB ] Я устал от тебя / I Melt with You [2011 HDRip] MVO Oдин 777 Скачать
1 | 0

28-11-2019 20:33  

Отключить всю рекламу на сайте

04-11-2012 14:43 Я устал от тебя Скачать торрент  

Саша Грэй????очень интересно)))pb.wtf



04-11-2012 14:47 Я устал от тебя Скачать торрент  

_Яна_ писал(а):

Саша Грэй????очень интересно)))

исправляется женщина,а может в тираж вышла,молодеж подпирает.pb.wtf



    Дорогой пользователь! Огромная просьба, поблагодарите релизера, оцените раздачу и оставьте свои комментарий, если Вы скачали Я устал от тебя через торрент бесплатно! Внесите свою лепту в развитие PiratBit!
    Комментировать посты могут только пользователи прошедшие не сложную регистрацию
    Показать сообщения:    

    Я устал от тебя через торрент
    Скачать бесплатно Я устал от тебя
    Я устал от тебя скачать торрент
    Я устал от тебя смотреть онлайн
    Cкачать фильм Я устал от тебя бесплатно
    Я устал от тебя скачать торрент в хорошем качестве
    Я устал от тебя смотреть онлайн бесплатно в хорошем качестве


    Вы не можете начинать темы
    Вы не можете отвечать на сообщения
    Вы не можете редактировать свои сообщения
    Вы не можете удалять свои сообщения
    Вы не можете голосовать в опросах
    Вы не можете прикреплять файлы к сообщениям
    Вы можете скачивать файлы