Всегда рабочее зеркало без VPN и Proxy просто перед .vidak.icu напиши любое слово или цифру, Пример http://08cf.vidak.icu

Лицензия

MVO

1 сезон

1

1 сезон

iTunes

1 сезон

13

1 сезон

Deluxe

pack

Рекомендуем

Repack

30

ВАЖНО

RePack

MK11

RePack

jed

RePack

fifa19

RePack

RDR2

RePack

NEED FOR SPEED™ PAYBACK

Кинопоиск HD

6 сезон

 Острые козырьки 6 сезон

Все сериалы

все сериалы на PB.wtf

RePack

FAR CRY 5
  
Magnet ссылка

Мой будущий бойфренд / My Future Boyfriend (Майкл Ланж) [2011 г., фантастика, триллер, мелодрама, комедия, DVDRip, MVO] pb.wtf

Мой будущий бойфренд через торрент pb.wtf

Размер: 1.37 GB | Добавлен: 9 лет 9 мес. назад | Торрент скачан:390 раз
Смотреть онлайн Мой будущий бойфренд | Скачать    Ребята, помогите собрать деньги на оплату серверов!!!

05-11-2012 11:06 Мой будущий бойфренд Скачать торрент  

Мой будущий бойфренд / My Future Boyfriend

Год выпуска: 2011
Страна: США
Жанр: фантастика, триллер, мелодрама, комедия
Продолжительность: 01:15:55
Перевод: Профессиональный многоголосый,

Режиссер: Майкл Ланж
Продюссер: Крэйг МаНил, Роб Ли, Rob Lee
Сценарий: Джеймс Орр, Джим Крукшэнк

Премьера в мире: 10 апреля 2011



В ролях: Сара Рю, Бэрри Уотсон, Фред Уиллард, Джордан Уолл, Эниша Брюстер, Валери Харпер

Описание: В далёком 3127 году ученые на раскопках обнаруживают хорошо сохранившийся экземпляр книги. Женский роман под названием «Запретная Любовь» оказался на столько непонятен в далёком будущем, что молодой ученый отправляется в опасное и захватывающее путешествие на 11 веков назад в 2011й год, чтобы отыскать автора романа Элизабет Баррет и попытаться понять, что такое любовь, секс, страсть и семья, ведь таких слов нет даже в словарях в XXXII веке…

Качество: DVDRip
Формат: AVI
Видео кодек: XviD
Аудио кодек: AC3
Видео: 704x384 (1.83:1), 25 fps, XviD build 50 ~2243 kbps avg, 0.33 bit/pixel
Аудио#1: Русский:48 kHz, MPEG Layer 3, 2 ch, ~128.00 kbps avg
Аудио#2: Английский: 48 kHz, AC3 Dolby Digital, 2/0 (L,R) ch, ~192 kbps

General
Complete name : H:кино 2My.Future.Boyfriend.2011.DVDRip.1400MB.avi
Format : AVI
Format/Info : Audio Video Interleave
File size : 1.37 GiB
Duration : 1h 15mn
Overall bit rate : 2 579 Kbps
Writing application : VirtualDubMod 1.5.10.3 | www.virtualdub-fr.org || (build 2550/release)
Writing library : VirtualDubMod build 2550/release

Video
ID : 0
Format : MPEG-4 Visual
Format profile : Advanced [email protected]
Format settings, BVOP : 2
Format settings, QPel : No
Format settings, GMC : No warppoints
Format settings, Matrix : Default (MPEG)
Codec ID : XVID
Codec ID/Hint : XviD
Duration : 1h 15mn
Bit rate : 2 245 Kbps
Width : 704 pixels
Height : 384 pixels
Display aspect ratio : 16:9
Frame rate : 25.000 fps
Color space : YUV
Chroma subsampling : 4:2:0
Bit depth : 8 bits
Scan type : Progressive
Compression mode : Lossy
Bits/(Pixel*Frame) : 0.332
Stream size : 1.19 GiB (87%)
Writing library : XviD 1.2.1 (UTC 2008-12-04)

Audio #1
ID : 1
Format : MPEG Audio
Format version : Version 1
Format profile : Layer 3
Mode : Joint stereo
Mode extension : MS Stereo
Codec ID : 55
Codec ID/Hint : MP3
Duration : 1h 15mn
Bit rate mode : Constant
Bit rate : 128 Kbps
Channel(s) : 2 channels
Sampling rate : 48.0 KHz
Compression mode : Lossy
Stream size : 69.5 MiB (5%)
Alignment : Aligned on interleaves
Interleave, duration : 40 ms (1.00 video frame)
Interleave, preload duration : 504 ms

Audio #2
ID : 2
Format : AC-3
Format/Info : Audio Coding 3
Mode extension : CM (complete main)
Codec ID : 2000
Duration : 1h 15mn
Bit rate mode : Constant
Bit rate : 192 Kbps
Channel(s) : 2 channels
Channel positions : Front: L R
Sampling rate : 48.0 KHz
Bit depth : 16 bits
Compression mode : Lossy
Stream size : 104 MiB (7%)
Alignment : Split accross interleaves
Interleave, duration : 40 ms (1.00 video frame)
Interleave, preload duration : 500 ms

pb.wtf



Скачать Мой будущий бойфренд через торрент https://pic1.kartinco.top/images/111/zlag8gaa5k.png Скачать, смотреть онлайн Мой будущий бойфренд бесплантно в хорошем качестве Описание: В далёком 3127 году ученые на раскопках обнаруживают хорошо сохранившийся экземпляр книги. Женский роман под названием «Запретная ... 10 10 1
Info! Золотая раздача, скачанное не засчитывается.
Торрент: Зарегистрирован [2012-11-05 11:06] · скачан: 390 раз
Статус: √ проверено
Размер: 1.37 GB
Как cкачать? Как скачать Мой будущий бойфренд через торрент | UTorrent

28-11-2019 20:33  

Отключить вcю реклaмy на сайте

    Дорогой пользователь! Огромная просьба, поблагодарите релизера, оцените раздачу и оставьте свои комментарий, если Вы скачали Мой будущий бойфренд через торрент бесплатно!
    Комментировать посты могут только пользователи прошедшие не сложную регистрацию
    Показать сообщения:    

    Мой будущий бойфренд через торрент
    Скачать бесплатно Мой будущий бойфренд
    Мой будущий бойфренд скачать торрент
    Мой будущий бойфренд смотреть онлайн
    Cкачать фильм Мой будущий бойфренд бесплатно
    Мой будущий бойфренд скачать торрент в хорошем качестве
    Мой будущий бойфренд смотреть онлайн бесплатно в хорошем качестве


    Вы не можете начинать темы
    Вы не можете отвечать на сообщения
    Вы не можете редактировать свои сообщения
    Вы не можете удалять свои сообщения
    Вы не можете голосовать в опросах
    Вы не можете прикреплять файлы к сообщениям
    Вы можете скачивать файлы