2 сезон

iTunes

MVO

1

2 сезон

iTunes

iTunes

1 сезон

RePack

30

Ultimate

ВАЖНО

ИГРА 18+

pack

RePack

MK11
pack

Легкие деньги

RePack

jed

RePack

fifa19

RePack

RDR2

RePack

NEED FOR SPEED™ PAYBACK

4 сезон

9 сезон

Бесстыжие 9 сезон

Все сериалы

все сериалы на PB.wtf

RePack

FAR CRY 5

Anonymous, добрый день, мы не успеваем собрать деньги на оплату серверов за декабрь и январь, помогите нам пожалуйста в это трудное время. В качестве благодарности мы отключим Вам всю рекламу на сайте (укажите свой ник в строку Ваше имя)!

×
  
Magnet ссылка

Доставить любой ценой (Александр Березань) [2011 г., военный, BDRip-AVC] pb.wtf

Доставить любой ценой через торрент pb.wtf

Размер: 2.18 GB | Добавлен: 8 лет 2 мес. назад | Торрент скачан:371 раз
Скачать  

05-11-2012 11:13 Доставить любой ценой Скачать торрент  

Доставить любой ценой

Год выпуска: 2011
Страна: Россия, Украина
Жанр: военный
Продолжительность: 01:50:39
Перевод: Не требуется
Cубтитры: русские (на немецкую речь)

Режиссер: Александр Березань
Продюссер: Виктор Мирский, Александр Москаленко
Сценарий: Марьяна Бек, Елена Бойко

Мировой рейтинг IMDB


В ролях: Евгения Хиривская, Дмитрий Орлов, Александр Кобзарь, Виктория Малекторович, Сергей Калантай, Дирк Мартенс, Евгений Ермаков, Юрий Шульган, Михаил Жонин, Владимир Левицкий

Описание: В октябре 1941 советские люди еще верили, что война с немцами не продлится дольше нескольких месяцев. Тем не менее по приказу руководства в тыл перевозят не только заводы, но и исторические ценности. В небольшом городке эвакуируют музей, уютно разместившийся в старинном монастыре. Молодая девушка Ася, ее отец-профессор да его заместитель Феденька — вот и вся охрана, на которую возложена миссия спасти для народа культурное достояние. Среди прочих экспонатов есть один особенный — он должен стать основой для выставки под патронатом самого товарища Сталина, но и у немцев на эту вещицу есть планы.Путь неблизкий, а дорога полна опасностей. Случается так, что вместо родных людей сопровождать Асеньку станет совсем чужой человек, судьба которого полна неприятных загадок, а повадки и привычки заставляют скорее опасаться его, чем доверять... но одной ей не выжить.

Доп. информация:
Исходник: Blu-ray disc 1080i [Spezialeinheit.Ostfront.2011.DUAL.COMPLETE.BLURAY-iFPD]

Качество: BDRip-AVC
Формат: MKV
Видео кодек: x264
Аудио кодек: AC3
Видео: x264, 2626 kbps , 1024x576, (16:9), 25.000 fps, 0.178 bit/pixel
Аудио#1: русский (AC3, 2 ch, 48 kHz, 192 kbps)
Cубтитры: русские (на немецкую речь)


скриншот   скриншот   скриншот   скриншот   скриншот   скриншот  
Общее
Уникальный идентификатор : 179933278151478861289438912046952944080 (0x875DE38AE94E987B81BCAF1F144911D0)
Полное имя : D:DVDDostavit.ljuboj.cenoj.2011.x264.BDRip.(AVC).fanatus.mkv
Формат : Matroska
Версия формата : Version 2
Размер файла : 2,18 Гбайт
Продолжительность : 1 ч. 50 м.
Общий поток : 2820 Кбит/сек
Название фильма : Dostavit' ljuboj cenoj (2011) - fanatus
Дата кодирования : UTC 2012-10-31 11:42:04
Программа кодирования : mkvmerge v3.4.0 ('Rapunzel') сборка от May 15 2010 09:38:20
Библиотека кодирования : libebml v0.8.0 + libmatroska v0.9.0

Видео
Идентификатор : 1
Формат : AVC
Формат/Информация : Advanced Video Codec
Профиль формата : High@L4.1
Параметр CABAC формата : Да
Параметр ReFrames формата : 10 кадров
Идентификатор кодека : V_MPEG4/ISO/AVC
Продолжительность : 1 ч. 50 м.
Битрейт : 2626 Кбит/сек
Ширина : 1024 пикселя
Высота : 576 пикселей
Соотношение сторон : 16:9
Режим частоты кадров : Постоянный
Частота кадров : 25,000 кадров/сек
Цветовое пространство : YUV
Субдискретизация насыщенности : 4:2:0
Битовая глубина : 8 бит
Тип развёртки : Прогрессивная
Бит/(Пиксели*Кадры) : 0.178
Размер потока : 1,99 Гбайт (91%)
Заголовок : Dostavit' ljuboj cenoj (2011)
Библиотека кодирования : x264 core 128 r2216 198a7ea
Настройки программы : cabac=1 / ref=10 / deblock=1:-3:-3 / analyse=0x3:0x113 / me=umh / subme=11 / psy=1 / psy_rd=1.00:0.05 / mixed_ref=1 / me_range=48 / chroma_me=1 / trellis=2 / 8x8dct=1 / cqm=0 / deadzone=21,11 / fast_pskip=0 / chroma_qp_offset=-3 / threads=16 / lookahead_threads=2 / sliced_threads=0 / nr=0 / decimate=0 / interlaced=0 / bluray_compat=0 / constrained_intra=0 / bframes=12 / b_pyramid=2 / b_adapt=2 / b_bias=0 / direct=3 / weightb=1 / open_gop=0 / weightp=2 / keyint=250 / keyint_min=25 / scenecut=40 / intra_refresh=0 / rc_lookahead=250 / rc=2pass / mbtree=1 / bitrate=2626 / ratetol=1.0 / qcomp=0.60 / qpmin=0 / qpmax=69 / qpstep=4 / cplxblur=20.0 / qblur=0.5 / vbv_maxrate=50000 / vbv_bufsize=62500 / nal_hrd=none / ip_ratio=1.40 / aq=1:0.90
Язык : Russian
Default : Да
Forced : Нет
Основные цвета : BT.709
Характеристики трансфера : BT.709
Коэффициенты матрицы : BT.709

Аудио
Идентификатор : 2
Формат : AC-3
Формат/Информация : Audio Coding 3
Профиль формата : Dolby Digital
Расширение режима : CM (complete main)
Параметр Endianness формата : Big
Идентификатор кодека : A_AC3
Продолжительность : 1 ч. 50 м.
Вид битрейта : Постоянный
Битрейт : 192 Кбит/сек
Каналы : 2 канала
Расположение каналов : Front: L R
Частота : 48,0 КГц
Битовая глубина : 16 бит
Метод сжатия : С потерями
Размер потока : 152 Мбайт (7%)
Заголовок : Original
Язык : Russian
Default : Да
Forced : Нет

Текст
Идентификатор : 3
Формат : UTF-8
Идентификатор кодека : S_TEXT/UTF8
Идентификатор кодека/Информация : UTF-8 Plain Text
Заголовок : Forced
Язык : Russian
Default : Да
Forced : Да

Меню
00:00:00.000 : en:Chapter 01
00:10:00.000 : en:Chapter 02
00:20:00.000 : en:Chapter 03
00:30:00.000 : en:Chapter 04
00:40:00.000 : en:Chapter 05
00:45:00.000 : en:Chapter 06
00:50:00.000 : en:Chapter 07
01:00:00.000 : en:Chapter 08
01:10:00.000 : en:Chapter 09
01:20:00.000 : en:Chapter 10
01:30:00.000 : en:Chapter 11
01:40:00.000 : en:Chapter 12
01:50:39.080 : en:Chapter 13


Доставить любой ценой скачать торрент


pb.wtf



Скачать Доставить любой ценой через торрент http://i46.fastpic.ru/big/2012/1105/09/90a6e1057c75b08a1cdf5aeeac7feb09.jpg Скачать фильм Доставить любой ценой через торрент бесплантно в хорошем качестве Описание: В октябре 1941 советские люди еще верили, что война с немцами не продлится дольше нескольких месяцев. Тем не менее по приказу ... 10 10 7
Info! Золотая раздача, скачанное не засчитывается.
Торрент: Зарегистрирован [2012-11-05 11:13] · скачан: 371 раз
Статус: √ проверено
Размер: 2.18 GB
Как cкачать? Как скачать Доставить любой ценой через торрент | UTorrent

% Раздел Тема Автор DL S | L
Наши сериалы [ 1.99 GB ] Доставить любой ценой / Сезон: 1 Серии: 4 из 4 [2011 военный DVDRip] coc900 Скачать
1 | 0
Наши сериалы [ 7.21 GB ] Доставить любой ценой / Серии: 4 из 4 [2011 Россия Украина военный DVD9] R5 [«Lizard Cinema Trade» «New Dream media»] voovaz Скачать
1 | 0
Наши сериалы [ 2.04 GB ] Доставить любой ценой / Сезон: 1 Серии: 4 из 4 [2011 военный SATRip] -=Cherry=- Скачать
1 | 0

28-11-2019 20:33  

Отключить всю рекламу на сайте

    Дорогой пользователь! Огромная просьба, поблагодарите релизера, оцените раздачу и оставьте свои комментарий, если Вы скачали Доставить любой ценой через торрент бесплатно! Внесите свою лепту в развитие PiratBit!
    Комментировать посты могут только пользователи прошедшие не сложную регистрацию
    Показать сообщения:    

    Доставить любой ценой через торрент
    Скачать бесплатно Доставить любой ценой
    Доставить любой ценой скачать торрент
    Доставить любой ценой смотреть онлайн
    Cкачать фильм Доставить любой ценой бесплатно
    Доставить любой ценой скачать торрент в хорошем качестве
    Доставить любой ценой смотреть онлайн бесплатно в хорошем качестве


    Вы не можете начинать темы
    Вы не можете отвечать на сообщения
    Вы не можете редактировать свои сообщения
    Вы не можете удалять свои сообщения
    Вы не можете голосовать в опросах
    Вы не можете прикреплять файлы к сообщениям
    Вы можете скачивать файлы