новый адрес
Мега распродажа FORZA HORIZON 4 ULTIMATE+ВСЕ DLC+ОНЛАЙН всего за 499р. 349 руб. (супер цена). Внимание количество ограничено!!!

iTunes

1+1

iTunes

мы

iTunes

1

iTunes

Чернобыль

iTunes

Ральф против интернета

Лицензия

ПШазам

Лицензия

Игра престолов

Лицензия

30
pack

ВАЖНО

!!Акция!!

Alien_RageХит недели

RePack

Resident Evil 21

ИГРА 18+

pack

RePack

Metro:Exodus

!!Акция!!

Alien_Rage

RePack

fifa19

RePack

Assassins Creed: Odyssey

RePack

NEED FOR SPEED™ PAYBACK

3 сезон

9 сезон

Бесстыжие 9 сезон

Все сериалы

все сериалы на PB.wtf

RePack

FAR CRY 5
Ребята, катастрофически не хватает 1900р. для оплаты серверов за Октябрь (всвязи с блокировками трафик упал в 3 раза), 1-2р., выручайте.
  

Чапаев (Георгий Васильев, Сергей Васильев) [1934 г., драма, военный, биография, история, DVDRip] pb.wtf

Чапаев через торрент pb.wtf

Размер: 1.37 GB | Добавлен: 7 лет назад | Торрент скачан:72 раза
Скачать  

05-11-2012 13:05 Чапаев Скачать торрент  

Чапаев

Год выпуска: 1934
Страна: СССР
Жанр: драма, военный, биография, история
Продолжительность: 01:30:31
Перевод: Оригинальный

Режиссер: Георгий Васильев, Сергей Васильев
Сценарий: Анна Фурманова, Георгий Васильев, Сергей Васильев

Премьера в мире: 14 января 1935

зрителям, достигшим 12 лет
7.00 (431)
http://www.kinopoisk.ru/film/45435/

В ролях: Борис Бабочкин, Леонид Кмит, Варвара Мясникова, Борис Блинов, Илларион Певцов, Степан Шкурат, Вячеслав Волков, Николай Симонов, Борис Чирков

Описание: По повести Дмитрия Фурманова. Урал в 1919 г. Гражданская война. Отряды храброго крестьянина Чапаева воюют с белой армией Колчака. К нему присылают политкомиссара Фурманова. Взаимопонимание двух командиров. Смерть Чапаева при переправе через Урал.

Доп. информация: Картина о легендарном герое гражданской войны является шедевром мирового кинематографа.Полная реставрация изображения и звука

Качество: DVDRip
Формат: AVI
Видео кодек: XviD
Аудио кодек: AC3
Видео: MPEG-4 Visual, XVID, 1720 Кбит/сек, 720*544 пикс., 25,000 кадр/сек
Аудио#1: AC-3, 448 Кбит/сек, 6 каналов, 48,0 КГц, Russian



Формат : AVI
Формат/Информация : Audio Video Interleave
Размер файла : 1,37 Гбайт
Продолжительность : 1 ч. 30 м.
Общий поток : 2175 Кбит/сек
Программа кодирования : VirtualDubMod 1.5.4.1 (build 2178/release)
Библиотека кодирования : VirtualDubMod build 2178/release

Видео
Идентификатор : 0
Формат : MPEG-4 Visual
Профиль формата : Advanced Simple@L5
Параметр BVOP формата : 1
Параметр QPel формата : Нет
Параметр GMC формата : Без точки перехода
Параметр матрицы формата : Выборочная
Идентификатор кодека : XVID
Идентификатор кодека/Подсказка : XviD
Продолжительность : 1 ч. 30 м.
Битрейт : 1720 Кбит/сек
Ширина : 720 пикселей
Высота : 544 пикселя
Соотношение сторон : 4:3
Частота кадров : 25,000 кадров/сек
Цветовое пространство : YUV
Субдискретизация насыщенности : 4:2:0
Битовая глубина : 8 бит
Тип развёртки : Прогрессивная
Метод сжатия : С потерями
Бит/(Пиксели*Кадры) : 0.176
Размер потока : 1,09 Гбайт (79%)
Библиотека кодирования : XviD 1.2.0.dev47 (UTC 2006-11-01)

Аудио
Идентификатор : 1
Формат : AC-3
Формат/Информация : Audio Coding 3
Расширение режима : CM (complete main)
Параметр Endianness формата : Big
Идентификатор кодека : 2000
Продолжительность : 1 ч. 30 м.
Вид битрейта : Постоянный
Битрейт : 448 Кбит/сек
Каналы : 6 каналов
Расположение каналов : Front: L C R, Side: L R, LFE
Частота : 48,0 КГц
Битовая глубина : 16 бит
Метод сжатия : С потерями
Задержка видео : 273 мс.
Размер потока : 290 Мбайт (21%)
Выравнивание : Разделение по промежуткам
Продолжительность промежутка : 96 мс. (2,40 видеокадра)
Время предзагрузки промежутка : 96 мс.
Язык : Russian



pb.wtf



Скачать Чапаев через торрент http://pic.kartinco.top/images/1/nv6jj54ngc.jpg Скачать фильм Чапаев через торрент бесплантно в хорошем качестве Описание: По повести Дмитрия Фурманова. Урал в 1919 г. Гражданская война. Отряды храброго крестьянина Чапаева воюют с белой армией Колчака. ... 10 10 4
Info! Золотая раздача, скачанное не засчитывается.
Торрент: Зарегистрирован [2012-11-05 13:05] · скачан: 72 раз
Статус: √ проверено
Размер: 1.37 GB
Как cкачать? Как скачать Чапаев через торрент | qTorrent

% Раздел Тема Автор DL S | L
Наши фильмы (HD, WEB-DL 720p, 1080p) [ 3.67 GB ] Чапаев Чапаев [2013 WEB-DL 720p] bober100 Скачать
1 | 0
Русские порно фильмы [ 1.07 GB ] Чапаев [2003 All Sex DVDRip] medsuk Скачать
1 | 0
Наши новые фильмы 2013 [ 1.46 GB ] Чапаев Чапаев [2013 WEB-DLRip] oleg8 Скачать
1 | 0


Последний раз редактировалось: lexxus350 (2012-11-05 13:21), всего редактировалось 2 раз(а)


>> Регистрируемся здесь <<






Отзывы и комментарии о схеме читаем и пишем здесь: ---> Отзывы и комментарии о схеме

Новые благодарочки в телеграм довольных пользователей:
скриншот   скриншот   скриншот   скриншот   скриншот

05-11-2012 13:10 Чапаев Скачать торрент  

lexxus350
И смеяться и плакать хочется.
Перевод: Профессиональный многоголосый
pb.wtf



05-11-2012 13:24 Чапаев Скачать торрент  

зато классический ретро фильм залил - не надо смеяться и плакатьpb.wtf



    Дорогой пользователь! Огромная просьба, поблагодарите релизера, оцените раздачу и оставьте свои комментарий, если Вы скачали Чапаев через торрент бесплатно! Внесите свою лепту в развитие PiratBit!
    Комментировать посты могут только пользователи прошедшие не сложную регистрацию
    Показать сообщения:    

    Чапаев через торрент
    Скачать бесплатно Чапаев
    Чапаев скачать торрент
    Чапаев смотреть онлайн
    Cкачать фильм Чапаев бесплатно
    Чапаев скачать торрент в хорошем качестве
    Чапаев смотреть онлайн бесплатно в хорошем качестве


    Вы не можете начинать темы
    Вы не можете отвечать на сообщения
    Вы не можете редактировать свои сообщения
    Вы не можете удалять свои сообщения
    Вы не можете голосовать в опросах
    Вы не можете прикреплять файлы к сообщениям
    Вы можете скачивать файлы