2 сезон

iTunes

1 сезон

1

iTunes

iTunes

iTunes

1 сезон

RePack

30

ИГРА 18+

pack

ВАЖНО

!!Акция!!

Alien_RageХит недели

RePack

MK11
pack

Забери бонус

RePack

jed

!!Акция!!

Alien_Rage

RePack

fifa19

RePack

Assassins Creed: Odyssey

RePack

NEED FOR SPEED™ PAYBACK

4 сезон

9 сезон

Бесстыжие 9 сезон

Все сериалы

все сериалы на PB.wtf

RePack

FAR CRY 5
  

Замбезия / Zambezia (Уэйн Тонли) [2012 г., Комедия, мультфильм, BDRip-AVC, Дубляж] pb.wtf

Замбезия через торрент pb.wtf

Размер: 1.46 GB | Добавлен: 7 лет 11 мес. назад | Торрент скачан:526 раз
Скачать  

06-11-2012 11:35 Замбезия Скачать торрент  

Замбезия / Zambezia

Год выпуска: 2012
Страна: ЮАР
Жанр: Комедия, мультфильм
Продолжительность: 01:22:26
Перевод: Профессиональный (полное дублирование)

Субтитры: Русские

Режиссер: Уэйн Тонли

В ролях: Эбигейл Бреслин, Кори Бертон, Джим Каммингс, Норин ДеВулф Ли, Дуру Джефф, Голдблюм Ричард Э. Грант, Таня Гунади, Сэмюэл Л. Джексон, Том Кенни

Описание: В мультфильме рассказывается история жизни юного соколёнка по имени Кай, его приключения, характер, комичные ситуации в которые он попадает на пути к своей главной цели, на пути к заветному птичьему городку Замбезия, в котором он от всей души желает отыскать новых друзей, которые бы скрасили его одиночество и не оставили в беде. Однако для начала ему необходимо преодолеть путь, который полон опасностей и неожиданных поворотов.


Качество: BDRip-AVC
Формат: MKV
Видео кодек: H.26x
Аудио кодек: AC3
Видео: 1024x552 (1,86:1), 23,976 кадр/сек, 1769 Кбит/сек, 0.131 bit/pixel
Аудио#1: 48 kHz, AC3 Dolby Digital, 3/2 (L,C,R,l,r) + LFE ch, ~384.00 kbps avg DUB
Аудио#2: 48 kHz, AC3 Dolby Digital, 3/2 (L,C,R,l,r) + LFE ch, ~384.00 kbps avg ENG

Код:

General
Unique ID                                : 216827766484131578448121623473292340266 (0xA31F824254E0CD8A8F9EAD86A9306C2A)
Complete name                            : E:ФильмыЗамбезия (2012) BDRip-AVC Лицензия.mkv
Format                                   : Matroska
Format version                           : Version 2
File size                                : 1.46 GiB
Duration                                 : 1h 22mn
Overall bit rate                         : 2 536 Kbps
Movie name                               : -=POTROKS=-
Encoded date                             : UTC 2012-09-24 15:28:33
Writing application                      : mkvmerge v5.7.0 ('The Whirlwind') built on Jul  8 2012 20:08:51
Writing library                          : libebml v1.2.3 + libmatroska v1.3.0

Video
ID                                       : 1
Format                                   : AVC
Format/Info                              : Advanced Video Codec
Format profile                           : High@L4.1
Format settings, CABAC                   : Yes
Format settings, ReFrames                : 12 frames
Codec ID                                 : V_MPEG4/ISO/AVC
Duration                                 : 1h 22mn
Bit rate                                 : 1 769 Kbps
Width                                    : 1 024 pixels
Height                                   : 552 pixels
Display aspect ratio                     : 1.85:1
Original display aspect ratio            : 1.85:1
Frame rate mode                          : Constant
Frame rate                               : 23.976 fps
Color space                              : YUV
Chroma subsampling                       : 4:2:0
Bit depth                                : 8 bits
Scan type                                : Progressive
Bits/(Pixel*Frame)                       : 0.131
Stream size                              : 1 013 MiB (68%)
Title                                    : Zambezija.2012.D.BDRip.x264.potroks
Writing library                          : x264 core 116 r2019M 9cc407d
Encoding settings                        : cabac=1 / ref=13 / deblock=1:-1:-1 / analyse=0x3:0x133 / me=umh / subme=10 / psy=1 / psy_rd=1.00:0.00 / mixed_ref=1 / me_range=48 / chroma_me=1 / trellis=2 / 8x8dct=1 / cqm=0 / deadzone=21,11 / fast_pskip=0 / chroma_qp_offset=-2 / threads=8 / sliced_threads=0 / nr=0 / decimate=1 / interlaced=0 / bluray_compat=0 / constrained_intra=0 / bframes=14 / b_pyramid=1 / b_adapt=2 / b_bias=0 / direct=3 / weightb=1 / open_gop=0 / weightp=2 / keyint=240 / keyint_min=23 / scenecut=40 / intra_refresh=0 / rc_lookahead=100 / rc=2pass / mbtree=1 / bitrate=1769 / ratetol=1.0 / qcomp=0.70 / qpmin=10 / qpmax=51 / qpstep=4 / cplxblur=20.0 / qblur=0.5 / vbv_maxrate=20000 / vbv_bufsize=25000 / nal_hrd=none / ip_ratio=1.35 / aq=1:1.00
Language                                 : English
Default                                  : Yes
Forced                                   : No

Audio #1
ID                                       : 2
Format                                   : AC-3
Format/Info                              : Audio Coding 3
Mode extension                           : CM (complete main)
Format settings, Endianness              : Big
Codec ID                                 : A_AC3
Duration                                 : 1h 22mn
Bit rate mode                            : Constant
Bit rate                                 : 384 Kbps
Channel(s)                               : 6 channels
Channel positions                        : Front: L C R, Side: L R, LFE
Sampling rate                            : 48.0 KHz
Bit depth                                : 16 bits
Compression mode                         : Lossy
Stream size                              : 226 MiB (15%)
Language                                 : Russian
Default                                  : Yes
Forced                                   : No

Audio #2
ID                                       : 3
Format                                   : AC-3
Format/Info                              : Audio Coding 3
Mode extension                           : CM (complete main)
Format settings, Endianness              : Big
Codec ID                                 : A_AC3
Duration                                 : 1h 22mn
Bit rate mode                            : Constant
Bit rate                                 : 384 Kbps
Channel(s)                               : 6 channels
Channel positions                        : Front: L C R, Side: L R, LFE
Sampling rate                            : 48.0 KHz
Bit depth                                : 16 bits
Compression mode                         : Lossy
Stream size                              : 226 MiB (15%)
Language                                 : English
Default                                  : No
Forced                                   : No

Text
ID                                       : 4
Format                                   : UTF-8
Codec ID                                 : S_TEXT/UTF8
Codec ID/Info                            : UTF-8 Plain Text
Default                                  : Yes
Forced                                   : No


pb.wtf



Скачать Замбезия через торрент http://pic.kartinco.top/images/1/fhjjkq299q.png Скачать фильм Замбезия через торрент бесплантно в хорошем качестве Описание: В мультфильме рассказывается история жизни юного соколёнка по имени Кай, его приключения, характер, комичные ситуации в которые ... 9 10 5
Info! Золотая раздача, скачанное не засчитывается.
Торрент: Зарегистрирован [2012-11-06 11:35] · скачан: 526 раз
Статус: √ проверено
Размер: 1.46 GB
Как cкачать? Как скачать Замбезия через торрент | qTorrent

% Раздел Тема Автор DL S | L
3D Мультфильмы [ 9.63 GB ] Замбезия в 3Д / Zambezia 3D [2012 Мультфильм BDRip 1080p DUB лицензия] Вертикальная стереопара serega768 Скачать
1 | 0
Иностранные мультфильмы [ 1.45 GB ] Замбезия / Zambezia [2012 ЮАР Монголия мультфильм BDRip [ - BD RUS] Ворон Скачать
1 | 0
Иностранные мультфильмы [ 1.37 GB ] Замбезия / Zambezia [2012 мультфильм HDRip лицензия] inktorrent Скачать
1 | 0
3D Мультфильмы [ 4.73 GB ] Замбезия / Zambezia [2012 мультфильм BDRip 1080p DUB] Anaglyph red'cyan slaventi-69 Скачать
1 | 0
Зарубежные Мультфильмы (BDRip 1080p, 720p, Blu-ray, BD-Remux) [ 2.66 GB ] Замбезия / Zambezia [2012 мультфильм BDRip 720p лицензия + Оригинал] slaventi-69 Скачать
1 | 0
National Geographic [ 3.83 GB ] Замбези / Zambezi [2010 Документальный HDTVRip 720р] кэп Скачать
1 | 0
Зарубежные Мультфильмы (BDRip 1080p, 720p, Blu-ray, BD-Remux) [ 17.29 GB ] Замбезия / Zambezia [2012 мультфильм Blu-Ray DUB лицензия] Pavlin Скачать
1 | 0

28-11-2019 20:33  

Отключить всю рекламу на сайте

06-11-2012 14:26 Замбезия Скачать торрент  

а семпл можно как звук? и озвучка ...pb.wtf



    Дорогой пользователь! Огромная просьба, поблагодарите релизера, оцените раздачу и оставьте свои комментарий, если Вы скачали Замбезия через торрент бесплатно! Внесите свою лепту в развитие PiratBit!
    Комментировать посты могут только пользователи прошедшие не сложную регистрацию
    Показать сообщения:    

    Замбезия через торрент
    Скачать бесплатно Замбезия
    Замбезия скачать торрент
    Замбезия смотреть онлайн
    Cкачать фильм Замбезия бесплатно
    Замбезия скачать торрент в хорошем качестве
    Замбезия смотреть онлайн бесплатно в хорошем качестве


    Вы не можете начинать темы
    Вы не можете отвечать на сообщения
    Вы не можете редактировать свои сообщения
    Вы не можете удалять свои сообщения
    Вы не можете голосовать в опросах
    Вы не можете прикреплять файлы к сообщениям
    Вы можете скачивать файлы