Ссылка на приватное зеркало нашего сайта всего за 1$. Внимание количество ограничено!!!

2 сезон

iTunes

1 сезон

1

2 сезон

2 сезон

iTunes

1 сезон

RePack

30

Ultimate

ВАЖНО

ИГРА 18+

pack

RePack

MK11
pack

Забери бонус

RePack

jed

!!Акция!!

Alien_Rage

RePack

fifa19

RePack

Assassins Creed: Odyssey

RePack

NEED FOR SPEED™ PAYBACK

4 сезон

9 сезон

Бесстыжие 9 сезон

Все сериалы

все сериалы на PB.wtf

RePack

FAR CRY 5
  

Дружинники / The Watch (Акива Шаффер) [2012 г., фантастика, комедия, Blu-ray CEE] [ лицензия ] pb.wtf

Дружинники через торрент pb.wtf

Размер: 40.99 GB | Добавлен: 8 лет назад | Торрент скачан:63 раза
Скачать  

06-11-2012 14:46 Дружинники Скачать торрент  

Дружинники / The Watch
«Крыша нужна?»


Год выпуска: 2012
Страна: США
Жанр: Фантастика, комедия
Продолжительность: 01:41:57
Перевод: Профессиональный (полное дублирование)
Cубтитры:
Русские, украинские, латышские, литовские, эстонские, английские, испанские, французские, португальские, арабские, болгарские, китайские, хорватские, чешские, греческие, иврит, венгерские, исландские, индонезийские, корейские, малазийские, польские, румынские, сербские, словенские, тайские, турецкие, въетнамские
Тип релиза: Лицензия

Режиссер: Акива Шаффер

Бюджет: $68 000 000
премьера (мир)
27 июля 2012, ...
премьера (РФ)
23 августа 2012, «Двадцатый Век Фокс СНГ»
релиз на Blu-Ray
6 декабря 2012, «Двадцатый Век Фокс СНГ», ...
релиз на DVD
6 декабря 2012, «Двадцатый Век Фокс СНГ»,




Бен Стиллер, Винс Вон, Джона Хилл, Ричард Айоаде, Розмари ДеУитт, Уилл Форте, Эрин Мориарти, Николас Браун, Р. Ли Эрми, Билли Крудап


Сюжет фильма разворачивается вокруг дружной компании соседей, организовавших дружину ради патрулирования окрестностей и поддержания порядка. В действительности благие намерения были лишь поводом хотя бы изредка сбегать от семьи, дабы покутить вечерком в сугубо мужской компании. Безоблачная жизнь заканчивается в тот момент, когда соседский дозор случайно узнаёт о заговоре с целью уничтожить мир.

Качество: Blu-ray
Формат: BDMV
Видео кодек: MPEG-4 AVC
Аудио кодек: DTS,AC3
Видео: MPEG-4 AVC Video / 29975 kbps / 1920х1080p / 23.976 fps / 16:9 / High Profile 4.1
Аудио:
1. DTS-HD Master Audio English 3806 kbps 5.1 / 48 kHz / 3806 kbps / 24-bit (DTS Core: 5.1 / 48 kHz / 1509 kbps / 24-bit)
2. Dolby Digital Audio English 448 kbps 5.1 / 48 kHz / 448 kbps
3. Dolby Digital Audio Spanish 448 kbps 5.1 / 48 kHz / 448 kbps
4. Dolby Digital Audio French 448 kbps 5.1 / 48 kHz / 448 kbps
5. Dolby Digital Audio Portuguese 448 kbps 5.1 / 48 kHz / 448 kbps
6. DTS Audio Russian 768 kbps 5.1 / 48 kHz / 768 kbps / 24-bit (Дубляж)
7. Dolby Digital Audio Czech 448 kbps 5.1 / 48 kHz / 448 kbps
8. Dolby Digital Audio Hungarian 448 kbps 5.1 / 48 kHz / 448 kbps
9. Dolby Digital Audio Polish 448 kbps 5.1 / 48 kHz / 448 kbps
10. Dolby Digital Audio Thai 448 kbps 5.1 / 48 kHz / 448 kbps
11. Dolby Digital Audio Turkish 448 kbps 5.1 / 48 kHz / 448 kbps
12. Dolby Digital Audio Ukrainian 448 kbps 5.1 / 48 kHz / 448 kbps (Дубляж)
Общее
Полное имя : D:The Watch 2.0.1.2. 1080p Blu-ray
Формат : Blu-ray movie
Профиль формата : BD-Java
Продолжительность : 4 ч. 46 м.
Режим общего битрейта : Переменный
Общий поток : 7 бит/сек

Видео #1
Идентификатор : 4113 (0x1011)
Идентификатор меню : 1 (0x1)
Формат : AVC
Формат/Информация : Advanced Video Codec
Профиль формата : High@L4.1
Параметр CABAC формата : Да
Параметр ReFrames формата : 4 кадра
Идентификатор кодека : 27
Продолжительность : 1 м. 53 с.
Вид битрейта : Переменный
Битрейт : 22,2 Мбит/сек
Максимальный битрейт : 36,0 Мбит/сек
Ширина : 1920 пикселей
Высота : 1080 пикселей
Соотношение сторон : 16:9
Частота кадров : 23,976 кадра/сек
Цветовое пространство : YUV
Субдискретизация насыщенности : 4:2:0
Битовая глубина : 8 бит
Размер потока : 299 Мбайт (94%)
Оригинал : 00021.m2ts

Видео #2
Идентификатор : 4113 (0x1011)
Формат : AVC
Формат/Информация : Advanced Video Codec
Продолжительность : 1 м. 53 с.
Ширина : 1920 пикселей
Высота : 1080 пикселей
Соотношение сторон : 16:9
Частота кадров : 23,976 кадра/сек

Видео #3
Идентификатор : 4113 (0x1011)
Формат : AVC
Формат/Информация : Advanced Video Codec
Продолжительность : 1 м. 53 с.
Ширина : 1920 пикселей
Высота : 1080 пикселей
Соотношение сторон : 16:9
Частота кадров : 23,976 кадра/сек

Видео #4
Идентификатор : 4113 (0x1011)
Формат : AVC
Формат/Информация : Advanced Video Codec
Продолжительность : 1 м. 53 с.
Ширина : 1920 пикселей
Высота : 1080 пикселей
Соотношение сторон : 16:9
Частота кадров : 23,976 кадра/сек

Видео #5
Идентификатор : 4113 (0x1011)
Формат : AVC
Формат/Информация : Advanced Video Codec
Продолжительность : 1 м. 53 с.
Ширина : 1920 пикселей
Высота : 1080 пикселей
Соотношение сторон : 16:9
Частота кадров : 23,976 кадра/сек

Видео #6
Идентификатор : 4113 (0x1011)
Формат : AVC
Формат/Информация : Advanced Video Codec
Продолжительность : 1 м. 53 с.
Ширина : 1920 пикселей
Высота : 1080 пикселей
Соотношение сторон : 16:9
Частота кадров : 23,976 кадра/сек

Видео #7
Идентификатор : 4113 (0x1011)
Формат : AVC
Формат/Информация : Advanced Video Codec
Продолжительность : 1 м. 53 с.
Ширина : 1920 пикселей
Высота : 1080 пикселей
Соотношение сторон : 16:9
Частота кадров : 23,976 кадра/сек

Видео #8
Идентификатор : 4113 (0x1011)
Формат : AVC
Формат/Информация : Advanced Video Codec
Продолжительность : 1 м. 53 с.
Ширина : 1920 пикселей
Высота : 1080 пикселей
Соотношение сторон : 16:9
Частота кадров : 23,976 кадра/сек

Видео #9
Идентификатор : 4113 (0x1011)
Формат : AVC
Формат/Информация : Advanced Video Codec
Продолжительность : 1 м. 53 с.
Ширина : 1920 пикселей
Высота : 1080 пикселей
Соотношение сторон : 16:9
Частота кадров : 23,976 кадра/сек

Видео #10
Идентификатор : 4113 (0x1011)
Формат : AVC
Формат/Информация : Advanced Video Codec
Продолжительность : 1 м. 53 с.
Ширина : 1920 пикселей
Высота : 1080 пикселей
Соотношение сторон : 16:9
Частота кадров : 23,976 кадра/сек

Видео #11
Идентификатор : 4113 (0x1011)
Формат : AVC
Формат/Информация : Advanced Video Codec
Продолжительность : 1 м. 53 с.
Ширина : 1920 пикселей
Высота : 1080 пикселей
Соотношение сторон : 16:9
Частота кадров : 23,976 кадра/сек

Видео #12
Идентификатор : 4113 (0x1011)
Формат : AVC
Формат/Информация : Advanced Video Codec
Продолжительность : 1 м. 53 с.
Ширина : 1920 пикселей
Высота : 1080 пикселей
Соотношение сторон : 16:9
Частота кадров : 23,976 кадра/сек

Видео #13
Идентификатор : 4113 (0x1011)
Формат : AVC
Формат/Информация : Advanced Video Codec
Продолжительность : 1 м. 53 с.
Ширина : 1920 пикселей
Высота : 1080 пикселей
Соотношение сторон : 16:9
Частота кадров : 23,976 кадра/сек

Видео #14
Идентификатор : 4113 (0x1011)
Формат : AVC
Формат/Информация : Advanced Video Codec
Продолжительность : 1 м. 53 с.
Ширина : 1920 пикселей
Высота : 1080 пикселей
Соотношение сторон : 16:9
Частота кадров : 23,976 кадра/сек

Видео #15
Идентификатор : 4113 (0x1011)
Формат : AVC
Формат/Информация : Advanced Video Codec
Продолжительность : 1 м. 53 с.
Ширина : 1920 пикселей
Высота : 1080 пикселей
Соотношение сторон : 16:9
Частота кадров : 23,976 кадра/сек

Видео #16
Идентификатор : 4113 (0x1011)
Формат : AVC
Формат/Информация : Advanced Video Codec
Продолжительность : 1 м. 53 с.
Ширина : 1920 пикселей
Высота : 1080 пикселей
Соотношение сторон : 16:9
Частота кадров : 23,976 кадра/сек

Видео #17
Идентификатор : 4113 (0x1011)
Формат : AVC
Формат/Информация : Advanced Video Codec
Продолжительность : 1 м. 53 с.
Ширина : 1920 пикселей
Высота : 1080 пикселей
Соотношение сторон : 16:9
Частота кадров : 23,976 кадра/сек

Видео #18
Идентификатор : 4113 (0x1011)
Формат : AVC
Формат/Информация : Advanced Video Codec
Продолжительность : 1 м. 53 с.
Ширина : 1920 пикселей
Высота : 1080 пикселей
Соотношение сторон : 16:9
Частота кадров : 23,976 кадра/сек

Видео #19
Идентификатор : 4113 (0x1011)
Формат : AVC
Формат/Информация : Advanced Video Codec
Продолжительность : 1 м. 53 с.
Ширина : 1920 пикселей
Высота : 1080 пикселей
Соотношение сторон : 16:9
Частота кадров : 23,976 кадра/сек

Видео #20
Идентификатор : 4113 (0x1011)
Формат : AVC
Формат/Информация : Advanced Video Codec
Продолжительность : 1 м. 53 с.
Ширина : 1920 пикселей
Высота : 1080 пикселей
Соотношение сторон : 16:9
Частота кадров : 23,976 кадра/сек

Видео #21
Идентификатор : 4113 (0x1011)
Формат : AVC
Формат/Информация : Advanced Video Codec
Продолжительность : 1 м. 53 с.
Ширина : 1920 пикселей
Высота : 1080 пикселей
Соотношение сторон : 16:9
Частота кадров : 23,976 кадра/сек

Видео #22
Идентификатор : 4113 (0x1011)
Формат : AVC
Формат/Информация : Advanced Video Codec
Продолжительность : 1 м. 53 с.
Ширина : 1920 пикселей
Высота : 1080 пикселей
Соотношение сторон : 16:9
Частота кадров : 23,976 кадра/сек

Видео #23
Идентификатор : 4113 (0x1011)
Формат : AVC
Формат/Информация : Advanced Video Codec
Продолжительность : 1 м. 53 с.
Ширина : 1920 пикселей
Высота : 1080 пикселей
Соотношение сторон : 16:9
Частота кадров : 23,976 кадра/сек

Видео #24
Идентификатор : 4113 (0x1011)
Формат : AVC
Формат/Информация : Advanced Video Codec
Продолжительность : 1 м. 53 с.
Ширина : 1920 пикселей
Высота : 1080 пикселей
Соотношение сторон : 16:9
Частота кадров : 23,976 кадра/сек

Видео #25
Идентификатор : 4113 (0x1011)
Формат : AVC
Формат/Информация : Advanced Video Codec
Продолжительность : 1 м. 53 с.
Ширина : 1920 пикселей
Высота : 1080 пикселей
Соотношение сторон : 16:9
Частота кадров : 23,976 кадра/сек

Видео #26
Идентификатор : 4113 (0x1011)
Формат : AVC
Формат/Информация : Advanced Video Codec
Продолжительность : 1 м. 53 с.
Ширина : 1920 пикселей
Высота : 1080 пикселей
Соотношение сторон : 16:9
Частота кадров : 23,976 кадра/сек

Видео #27
Идентификатор : 4113 (0x1011)
Формат : AVC
Формат/Информация : Advanced Video Codec
Продолжительность : 1 м. 53 с.
Ширина : 1920 пикселей
Высота : 1080 пикселей
Соотношение сторон : 16:9
Частота кадров : 23,976 кадра/сек

Видео #28
Идентификатор : 4113 (0x1011)
Формат : AVC
Формат/Информация : Advanced Video Codec
Продолжительность : 1 м. 53 с.
Ширина : 1920 пикселей
Высота : 1080 пикселей
Соотношение сторон : 16:9
Частота кадров : 23,976 кадра/сек

Видео #29
Идентификатор : 4113 (0x1011)
Формат : AVC
Формат/Информация : Advanced Video Codec
Продолжительность : 1 м. 53 с.
Ширина : 1920 пикселей
Высота : 1080 пикселей
Соотношение сторон : 16:9
Частота кадров : 23,976 кадра/сек

Видео #30
Идентификатор : 4113 (0x1011)
Формат : AVC
Формат/Информация : Advanced Video Codec
Продолжительность : 1 м. 53 с.
Ширина : 1920 пикселей
Высота : 1080 пикселей
Соотношение сторон : 16:9
Частота кадров : 23,976 кадра/сек

Видео #31
Идентификатор : 4113 (0x1011)
Формат : AVC
Формат/Информация : Advanced Video Codec
Продолжительность : 1 м. 53 с.
Ширина : 1920 пикселей
Высота : 1080 пикселей
Соотношение сторон : 16:9
Частота кадров : 23,976 кадра/сек

Видео #32
Идентификатор : 4113 (0x1011)
Формат : AVC
Формат/Информация : Advanced Video Codec
Продолжительность : 1 м. 53 с.
Ширина : 1920 пикселей
Высота : 1080 пикселей
Соотношение сторон : 16:9
Частота кадров : 23,976 кадра/сек

Видео #33
Идентификатор : 4113 (0x1011)
Формат : AVC
Формат/Информация : Advanced Video Codec
Продолжительность : 1 м. 53 с.
Ширина : 1920 пикселей
Высота : 1080 пикселей
Соотношение сторон : 16:9
Частота кадров : 23,976 кадра/сек

Видео #34
Идентификатор : 4113 (0x1011)
Формат : AVC
Формат/Информация : Advanced Video Codec
Продолжительность : 1 м. 53 с.
Ширина : 1920 пикселей
Высота : 1080 пикселей
Соотношение сторон : 16:9
Частота кадров : 23,976 кадра/сек

Видео #35
Идентификатор : 4113 (0x1011)
Формат : AVC
Формат/Информация : Advanced Video Codec
Продолжительность : 1 м. 53 с.
Ширина : 1920 пикселей
Высота : 1080 пикселей
Соотношение сторон : 16:9
Частота кадров : 23,976 кадра/сек

Видео #36
Идентификатор : 4113 (0x1011)
Формат : AVC
Формат/Информация : Advanced Video Codec
Продолжительность : 1 м. 53 с.
Ширина : 1920 пикселей
Высота : 1080 пикселей
Соотношение сторон : 16:9
Частота кадров : 23,976 кадра/сек

Видео #37
Идентификатор : 4113 (0x1011)
Формат : AVC
Формат/Информация : Advanced Video Codec
Продолжительность : 1 м. 53 с.
Ширина : 1920 пикселей
Высота : 1080 пикселей
Соотношение сторон : 16:9
Частота кадров : 23,976 кадра/сек

Видео #38
Идентификатор : 4113 (0x1011)
Формат : AVC
Формат/Информация : Advanced Video Codec
Продолжительность : 1 м. 53 с.
Ширина : 1920 пикселей
Высота : 1080 пикселей
Соотношение сторон : 16:9
Частота кадров : 23,976 кадра/сек

Видео #39
Идентификатор : 4113 (0x1011)
Формат : AVC
Формат/Информация : Advanced Video Codec
Продолжительность : 1 м. 53 с.
Ширина : 1920 пикселей
Высота : 1080 пикселей
Соотношение сторон : 16:9
Частота кадров : 23,976 кадра/сек

Видео #40
Идентификатор : 4113 (0x1011)
Формат : AVC
Формат/Информация : Advanced Video Codec
Продолжительность : 1 м. 53 с.
Ширина : 1920 пикселей
Высота : 1080 пикселей
Соотношение сторон : 16:9
Частота кадров : 23,976 кадра/сек

Видео #41
Идентификатор : 4113 (0x1011)
Формат : AVC
Формат/Информация : Advanced Video Codec
Продолжительность : 1 м. 53 с.
Ширина : 1920 пикселей
Высота : 1080 пикселей
Соотношение сторон : 16:9
Частота кадров : 23,976 кадра/сек

Видео #42
Идентификатор : 4113 (0x1011)
Формат : AVC
Формат/Информация : Advanced Video Codec
Продолжительность : 1 м. 53 с.
Ширина : 1920 пикселей
Высота : 1080 пикселей
Соотношение сторон : 16:9
Частота кадров : 23,976 кадра/сек

Видео #43
Идентификатор : 4113 (0x1011)
Формат : AVC
Формат/Информация : Advanced Video Codec
Продолжительность : 1 м. 53 с.
Ширина : 1920 пикселей
Высота : 1080 пикселей
Соотношение сторон : 16:9
Частота кадров : 23,976 кадра/сек

Видео #44
Идентификатор : 4113 (0x1011)
Формат : AVC
Формат/Информация : Advanced Video Codec
Продолжительность : 1 м. 53 с.
Ширина : 1920 пикселей
Высота : 1080 пикселей
Соотношение сторон : 16:9
Частота кадров : 23,976 кадра/сек

Видео #45
Идентификатор : 4113 (0x1011)
Формат : AVC
Формат/Информация : Advanced Video Codec
Продолжительность : 1 м. 53 с.
Ширина : 1920 пикселей
Высота : 1080 пикселей
Соотношение сторон : 16:9
Частота кадров : 23,976 кадра/сек

Видео #46
Идентификатор : 4113 (0x1011)
Формат : AVC
Формат/Информация : Advanced Video Codec
Продолжительность : 1 м. 53 с.
Ширина : 1920 пикселей
Высота : 1080 пикселей
Соотношение сторон : 16:9
Частота кадров : 23,976 кадра/сек

Видео #47
Идентификатор : 4113 (0x1011)
Формат : AVC
Формат/Информация : Advanced Video Codec
Продолжительность : 1 м. 53 с.
Ширина : 1920 пикселей
Высота : 1080 пикселей
Соотношение сторон : 16:9
Частота кадров : 23,976 кадра/сек

Видео #48
Идентификатор : 4113 (0x1011)
Формат : AVC
Формат/Информация : Advanced Video Codec
Продолжительность : 1 м. 53 с.
Ширина : 1920 пикселей
Высота : 1080 пикселей
Соотношение сторон : 16:9
Частота кадров : 23,976 кадра/сек

Видео #49
Идентификатор : 4113 (0x1011)
Формат : AVC
Формат/Информация : Advanced Video Codec
Продолжительность : 1 м. 53 с.
Ширина : 1920 пикселей
Высота : 1080 пикселей
Соотношение сторон : 16:9
Частота кадров : 23,976 кадра/сек

Видео #50
Идентификатор : 4113 (0x1011)
Формат : AVC
Формат/Информация : Advanced Video Codec
Продолжительность : 1 м. 53 с.
Ширина : 1920 пикселей
Высота : 1080 пикселей
Соотношение сторон : 16:9
Частота кадров : 23,976 кадра/сек

Видео #51
Идентификатор : 4113 (0x1011)
Формат : AVC
Формат/Информация : Advanced Video Codec
Продолжительность : 1 м. 53 с.
Ширина : 1920 пикселей
Высота : 1080 пикселей
Соотношение сторон : 16:9
Частота кадров : 23,976 кадра/сек

Видео #52
Идентификатор : 4113 (0x1011)
Формат : AVC
Формат/Информация : Advanced Video Codec
Продолжительность : 1 м. 53 с.
Ширина : 1920 пикселей
Высота : 1080 пикселей
Соотношение сторон : 16:9
Частота кадров : 23,976 кадра/сек

Видео #53
Идентификатор : 4113 (0x1011)
Формат : AVC
Формат/Информация : Advanced Video Codec
Продолжительность : 1 м. 53 с.
Ширина : 1920 пикселей
Высота : 1080 пикселей
Соотношение сторон : 16:9
Частота кадров : 23,976 кадра/сек

Видео #54
Идентификатор : 4113 (0x1011)
Формат : AVC
Формат/Информация : Advanced Video Codec
Продолжительность : 1 м. 53 с.
Ширина : 1920 пикселей
Высота : 1080 пикселей
Соотношение сторон : 16:9
Частота кадров : 23,976 кадра/сек

Видео #55
Идентификатор : 4113 (0x1011)
Формат : AVC
Формат/Информация : Advanced Video Codec
Продолжительность : 1 м. 53 с.
Ширина : 1920 пикселей
Высота : 1080 пикселей
Соотношение сторон : 16:9
Частота кадров : 23,976 кадра/сек

Видео #56
Идентификатор : 4113 (0x1011)
Формат : AVC
Формат/Информация : Advanced Video Codec
Продолжительность : 1 м. 53 с.
Ширина : 1920 пикселей
Высота : 1080 пикселей
Соотношение сторон : 16:9
Частота кадров : 23,976 кадра/сек

Видео #57
Идентификатор : 4113 (0x1011)
Формат : AVC
Формат/Информация : Advanced Video Codec
Продолжительность : 1 м. 53 с.
Ширина : 1920 пикселей
Высота : 1080 пикселей
Соотношение сторон : 16:9
Частота кадров : 23,976 кадра/сек

Видео #58
Идентификатор : 4113 (0x1011)
Формат : AVC
Формат/Информация : Advanced Video Codec
Продолжительность : 1 м. 53 с.
Ширина : 1920 пикселей
Высота : 1080 пикселей
Соотношение сторон : 16:9
Частота кадров : 23,976 кадра/сек

Видео #59
Идентификатор : 4113 (0x1011)
Формат : AVC
Формат/Информация : Advanced Video Codec
Продолжительность : 1 м. 53 с.
Ширина : 1920 пикселей
Высота : 1080 пикселей
Соотношение сторон : 16:9
Частота кадров : 23,976 кадра/сек

Видео #60
Идентификатор : 4113 (0x1011)
Формат : AVC
Формат/Информация : Advanced Video Codec
Продолжительность : 1 м. 53 с.
Ширина : 1920 пикселей
Высота : 1080 пикселей
Соотношение сторон : 16:9
Частота кадров : 23,976 кадра/сек

Видео #61
Идентификатор : 4113 (0x1011)
Формат : AVC
Формат/Информация : Advanced Video Codec
Продолжительность : 1 м. 53 с.
Ширина : 1920 пикселей
Высота : 1080 пикселей
Соотношение сторон : 16:9
Частота кадров : 23,976 кадра/сек

Видео #62
Идентификатор : 4113 (0x1011)
Формат : AVC
Формат/Информация : Advanced Video Codec
Продолжительность : 1 м. 53 с.
Ширина : 1920 пикселей
Высота : 1080 пикселей
Соотношение сторон : 16:9
Частота кадров : 23,976 кадра/сек

Видео #63
Идентификатор : 4113 (0x1011)
Формат : AVC
Формат/Информация : Advanced Video Codec
Продолжительность : 1 м. 53 с.
Ширина : 1920 пикселей
Высота : 1080 пикселей
Соотношение сторон : 16:9
Частота кадров : 23,976 кадра/сек

Видео #64
Идентификатор : 4113 (0x1011)
Формат : AVC
Формат/Информация : Advanced Video Codec
Продолжительность : 1 м. 53 с.
Ширина : 1920 пикселей
Высота : 1080 пикселей
Соотношение сторон : 16:9
Частота кадров : 23,976 кадра/сек

Видео #65
Идентификатор : 4113 (0x1011)
Формат : AVC
Формат/Информация : Advanced Video Codec
Продолжительность : 1 м. 53 с.
Ширина : 1920 пикселей
Высота : 1080 пикселей
Соотношение сторон : 16:9
Частота кадров : 23,976 кадра/сек

Видео #66
Идентификатор : 4113 (0x1011)
Формат : AVC
Формат/Информация : Advanced Video Codec
Продолжительность : 1 м. 53 с.
Ширина : 1920 пикселей
Высота : 1080 пикселей
Соотношение сторон : 16:9
Частота кадров : 23,976 кадра/сек

Видео #67
Идентификатор : 4113 (0x1011)
Формат : AVC
Формат/Информация : Advanced Video Codec
Продолжительность : 1 м. 53 с.
Ширина : 1920 пикселей
Высота : 1080 пикселей
Соотношение сторон : 16:9
Частота кадров : 23,976 кадра/сек

Видео #68
Идентификатор : 4113 (0x1011)
Формат : AVC
Формат/Информация : Advanced Video Codec
Продолжительность : 1 м. 53 с.
Ширина : 1920 пикселей
Высота : 1080 пикселей
Соотношение сторон : 16:9
Частота кадров : 23,976 кадра/сек

Видео #69
Идентификатор : 4113 (0x1011)
Формат : AVC
Формат/Информация : Advanced Video Codec
Продолжительность : 1 м. 53 с.
Ширина : 1920 пикселей
Высота : 1080 пикселей
Соотношение сторон : 16:9
Частота кадров : 23,976 кадра/сек

Видео #70
Идентификатор : 4113 (0x1011)
Формат : AVC
Формат/Информация : Advanced Video Codec
Продолжительность : 1 м. 53 с.
Ширина : 1920 пикселей
Высота : 1080 пикселей
Соотношение сторон : 16:9
Частота кадров : 23,976 кадра/сек

Видео #71
Идентификатор : 4113 (0x1011)
Формат : AVC
Формат/Информация : Advanced Video Codec
Продолжительность : 1 м. 53 с.
Ширина : 1920 пикселей
Высота : 1080 пикселей
Соотношение сторон : 16:9
Частота кадров : 23,976 кадра/сек

Видео #72
Идентификатор : 4113 (0x1011)
Формат : AVC
Формат/Информация : Advanced Video Codec
Продолжительность : 1 м. 53 с.
Ширина : 1920 пикселей
Высота : 1080 пикселей
Соотношение сторон : 16:9
Частота кадров : 23,976 кадра/сек

Видео #73
Идентификатор : 4113 (0x1011)
Формат : AVC
Формат/Информация : Advanced Video Codec
Продолжительность : 1 м. 53 с.
Ширина : 1920 пикселей
Высота : 1080 пикселей
Соотношение сторон : 16:9
Частота кадров : 23,976 кадра/сек

Видео #74
Идентификатор : 4113 (0x1011)
Формат : AVC
Формат/Информация : Advanced Video Codec
Продолжительность : 1 м. 53 с.
Ширина : 1920 пикселей
Высота : 1080 пикселей
Соотношение сторон : 16:9
Частота кадров : 23,976 кадра/сек

Видео #75
Идентификатор : 4113 (0x1011)
Формат : AVC
Формат/Информация : Advanced Video Codec
Продолжительность : 1 м. 53 с.
Ширина : 1920 пикселей
Высота : 1080 пикселей
Соотношение сторон : 16:9
Частота кадров : 23,976 кадра/сек

Видео #76
Идентификатор : 4113 (0x1011)
Формат : AVC
Формат/Информация : Advanced Video Codec
Продолжительность : 1 м. 53 с.
Ширина : 1920 пикселей
Высота : 1080 пикселей
Соотношение сторон : 16:9
Частота кадров : 23,976 кадра/сек

Видео #77
Идентификатор : 4113 (0x1011)
Формат : AVC
Формат/Информация : Advanced Video Codec
Продолжительность : 1 м. 53 с.
Ширина : 1920 пикселей
Высота : 1080 пикселей
Соотношение сторон : 16:9
Частота кадров : 23,976 кадра/сек

Видео #78
Идентификатор : 4113 (0x1011)
Формат : AVC
Формат/Информация : Advanced Video Codec
Продолжительность : 1 м. 53 с.
Ширина : 1920 пикселей
Высота : 1080 пикселей
Соотношение сторон : 16:9
Частота кадров : 23,976 кадра/сек

Видео #79
Идентификатор : 4113 (0x1011)
Формат : AVC
Формат/Информация : Advanced Video Codec
Продолжительность : 1 м. 53 с.
Ширина : 1920 пикселей
Высота : 1080 пикселей
Соотношение сторон : 16:9
Частота кадров : 23,976 кадра/сек

Видео #80
Идентификатор : 4113 (0x1011)
Формат : AVC
Формат/Информация : Advanced Video Codec
Продолжительность : 1 м. 53 с.
Ширина : 1920 пикселей
Высота : 1080 пикселей
Соотношение сторон : 16:9
Частота кадров : 23,976 кадра/сек

Видео #81
Идентификатор : 4113 (0x1011)
Формат : AVC
Формат/Информация : Advanced Video Codec
Продолжительность : 1 м. 53 с.
Ширина : 1920 пикселей
Высота : 1080 пикселей
Соотношение сторон : 16:9
Частота кадров : 23,976 кадра/сек

Видео #82
Идентификатор : 4113 (0x1011)
Формат : AVC
Формат/Информация : Advanced Video Codec
Продолжительность : 1 м. 53 с.
Ширина : 1920 пикселей
Высота : 1080 пикселей
Соотношение сторон : 16:9
Частота кадров : 23,976 кадра/сек

Видео #83
Идентификатор : 4113 (0x1011)
Формат : AVC
Формат/Информация : Advanced Video Codec
Продолжительность : 1 м. 53 с.
Ширина : 1920 пикселей
Высота : 1080 пикселей
Соотношение сторон : 16:9
Частота кадров : 23,976 кадра/сек

Видео #84
Идентификатор : 4113 (0x1011)
Формат : AVC
Формат/Информация : Advanced Video Codec
Продолжительность : 1 м. 53 с.
Ширина : 1920 пикселей
Высота : 1080 пикселей
Соотношение сторон : 16:9
Частота кадров : 23,976 кадра/сек

Видео #85
Идентификатор : 4113 (0x1011)
Формат : AVC
Формат/Информация : Advanced Video Codec
Продолжительность : 1 м. 53 с.
Ширина : 1920 пикселей
Высота : 1080 пикселей
Соотношение сторон : 16:9
Частота кадров : 23,976 кадра/сек

Видео #86
Идентификатор : 4113 (0x1011)
Формат : AVC
Формат/Информация : Advanced Video Codec
Продолжительность : 1 м. 53 с.
Ширина : 1920 пикселей
Высота : 1080 пикселей
Соотношение сторон : 16:9
Частота кадров : 23,976 кадра/сек

Видео #87
Идентификатор : 4113 (0x1011)
Формат : AVC
Формат/Информация : Advanced Video Codec
Продолжительность : 1 м. 53 с.
Ширина : 1920 пикселей
Высота : 1080 пикселей
Соотношение сторон : 16:9
Частота кадров : 23,976 кадра/сек

Видео #88
Идентификатор : 4113 (0x1011)
Формат : AVC
Формат/Информация : Advanced Video Codec
Продолжительность : 1 м. 53 с.
Ширина : 1920 пикселей
Высота : 1080 пикселей
Соотношение сторон : 16:9
Частота кадров : 23,976 кадра/сек

Видео #89
Идентификатор : 4113 (0x1011)
Формат : AVC
Формат/Информация : Advanced Video Codec
Продолжительность : 1 м. 53 с.
Ширина : 1920 пикселей
Высота : 1080 пикселей
Соотношение сторон : 16:9
Частота кадров : 23,976 кадра/сек

Видео #90
Идентификатор : 4113 (0x1011)
Формат : AVC
Формат/Информация : Advanced Video Codec
Продолжительность : 1 м. 53 с.
Ширина : 1920 пикселей
Высота : 1080 пикселей
Соотношение сторон : 16:9
Частота кадров : 23,976 кадра/сек

Видео #91
Идентификатор : 4113 (0x1011)
Формат : AVC
Формат/Информация : Advanced Video Codec
Продолжительность : 1 м. 53 с.
Ширина : 1920 пикселей
Высота : 1080 пикселей
Соотношение сторон : 16:9
Частота кадров : 23,976 кадра/сек

Видео #92
Идентификатор : 4113 (0x1011)
Формат : AVC
Формат/Информация : Advanced Video Codec
Продолжительность : 1 м. 53 с.
Ширина : 1920 пикселей
Высота : 1080 пикселей
Соотношение сторон : 16:9
Частота кадров : 23,976 кадра/сек

Видео #93
Идентификатор : 4113 (0x1011)
Формат : AVC
Формат/Информация : Advanced Video Codec
Продолжительность : 1 м. 53 с.
Ширина : 1920 пикселей
Высота : 1080 пикселей
Соотношение сторон : 16:9
Частота кадров : 23,976 кадра/сек

Видео #94
Идентификатор : 4113 (0x1011)
Формат : AVC
Формат/Информация : Advanced Video Codec
Продолжительность : 1 м. 53 с.
Ширина : 1920 пикселей
Высота : 1080 пикселей
Соотношение сторон : 16:9
Частота кадров : 23,976 кадра/сек

Видео #95
Идентификатор : 4113 (0x1011)
Формат : AVC
Формат/Информация : Advanced Video Codec
Продолжительность : 1 м. 53 с.
Ширина : 1920 пикселей
Высота : 1080 пикселей
Соотношение сторон : 16:9
Частота кадров : 23,976 кадра/сек

Видео #96
Идентификатор : 4113 (0x1011)
Формат : AVC
Формат/Информация : Advanced Video Codec
Продолжительность : 1 м. 53 с.
Ширина : 1920 пикселей
Высота : 1080 пикселей
Соотношение сторон : 16:9
Частота кадров : 23,976 кадра/сек

Видео #97
Идентификатор : 4113 (0x1011)
Формат : AVC
Формат/Информация : Advanced Video Codec
Продолжительность : 1 м. 53 с.
Ширина : 1920 пикселей
Высота : 1080 пикселей
Соотношение сторон : 16:9
Частота кадров : 23,976 кадра/сек

Видео #98
Идентификатор : 4113 (0x1011)
Формат : AVC
Формат/Информация : Advanced Video Codec
Продолжительность : 1 м. 53 с.
Ширина : 1920 пикселей
Высота : 1080 пикселей
Соотношение сторон : 16:9
Частота кадров : 23,976 кадра/сек

Видео #99
Идентификатор : 4113 (0x1011)
Формат : AVC
Формат/Информация : Advanced Video Codec
Продолжительность : 1 м. 53 с.
Ширина : 1920 пикселей
Высота : 1080 пикселей
Соотношение сторон : 16:9
Частота кадров : 23,976 кадра/сек

Видео #100
Идентификатор : 4113 (0x1011)
Формат : AVC
Формат/Информация : Advanced Video Codec
Продолжительность : 1 м. 53 с.
Ширина : 1920 пикселей
Высота : 1080 пикселей
Соотношение сторон : 16:9
Частота кадров : 23,976 кадра/сек

Видео #101
Идентификатор : 4113 (0x1011)
Формат : AVC
Формат/Информация : Advanced Video Codec
Продолжительность : 1 м. 53 с.
Ширина : 1920 пикселей
Высота : 1080 пикселей
Соотношение сторон : 16:9
Частота кадров : 23,976 кадра/сек

Видео #102
Идентификатор : 4113 (0x1011)
Формат : AVC
Формат/Информация : Advanced Video Codec
Продолжительность : 1 м. 53 с.
Ширина : 1920 пикселей
Высота : 1080 пикселей
Соотношение сторон : 16:9
Частота кадров : 23,976 кадра/сек

Видео #103
Идентификатор : 4113 (0x1011)
Формат : AVC
Формат/Информация : Advanced Video Codec
Продолжительность : 1 м. 53 с.
Ширина : 1920 пикселей
Высота : 1080 пикселей
Соотношение сторон : 16:9
Частота кадров : 23,976 кадра/сек

Видео #104
Идентификатор : 4113 (0x1011)
Формат : AVC
Формат/Информация : Advanced Video Codec
Продолжительность : 1 м. 53 с.
Ширина : 1920 пикселей
Высота : 1080 пикселей
Соотношение сторон : 16:9
Частота кадров : 23,976 кадра/сек

Видео #105
Идентификатор : 4113 (0x1011)
Формат : AVC
Формат/Информация : Advanced Video Codec
Продолжительность : 1 м. 53 с.
Ширина : 1920 пикселей
Высота : 1080 пикселей
Соотношение сторон : 16:9
Частота кадров : 23,976 кадра/сек

Видео #106
Идентификатор : 4113 (0x1011)
Формат : AVC
Формат/Информация : Advanced Video Codec
Продолжительность : 1 м. 53 с.
Ширина : 1920 пикселей
Высота : 1080 пикселей
Соотношение сторон : 16:9
Частота кадров : 23,976 кадра/сек

Видео #107
Идентификатор : 4113 (0x1011)
Формат : AVC
Формат/Информация : Advanced Video Codec
Продолжительность : 1 м. 53 с.
Ширина : 1920 пикселей
Высота : 1080 пикселей
Соотношение сторон : 16:9
Частота кадров : 23,976 кадра/сек

Видео #108
Идентификатор : 4113 (0x1011)
Формат : AVC
Формат/Информация : Advanced Video Codec
Продолжительность : 1 м. 53 с.
Ширина : 1920 пикселей
Высота : 1080 пикселей
Соотношение сторон : 16:9
Частота кадров : 23,976 кадра/сек

Видео #109
Идентификатор : 4113 (0x1011)
Формат : AVC
Формат/Информация : Advanced Video Codec
Продолжительность : 1 м. 53 с.
Ширина : 1920 пикселей
Высота : 1080 пикселей
Соотношение сторон : 16:9
Частота кадров : 23,976 кадра/сек

Видео #110
Идентификатор : 4113 (0x1011)
Формат : AVC
Формат/Информация : Advanced Video Codec
Продолжительность : 1 м. 53 с.
Ширина : 1920 пикселей
Высота : 1080 пикселей
Соотношение сторон : 16:9
Частота кадров : 23,976 кадра/сек

Видео #111
Идентификатор : 4113 (0x1011)
Формат : AVC
Формат/Информация : Advanced Video Codec
Продолжительность : 1 м. 53 с.
Ширина : 1920 пикселей
Высота : 1080 пикселей
Соотношение сторон : 16:9
Частота кадров : 23,976 кадра/сек

Видео #112
Идентификатор : 4113 (0x1011)
Формат : AVC
Формат/Информация : Advanced Video Codec
Продолжительность : 1 м. 53 с.
Ширина : 1920 пикселей
Высота : 1080 пикселей
Соотношение сторон : 16:9
Частота кадров : 23,976 кадра/сек

Видео #113
Идентификатор : 4113 (0x1011)
Формат : AVC
Формат/Информация : Advanced Video Codec
Продолжительность : 1 м. 53 с.
Ширина : 1920 пикселей
Высота : 1080 пикселей
Соотношение сторон : 16:9
Частота кадров : 23,976 кадра/сек

Видео #114
Идентификатор : 4113 (0x1011)
Формат : AVC
Формат/Информация : Advanced Video Codec
Продолжительность : 1 м. 53 с.
Ширина : 1920 пикселей
Высота : 1080 пикселей
Соотношение сторон : 16:9
Частота кадров : 23,976 кадра/сек

Видео #115
Идентификатор : 4113 (0x1011)
Формат : AVC
Формат/Информация : Advanced Video Codec
Продолжительность : 1 м. 53 с.
Ширина : 1920 пикселей
Высота : 1080 пикселей
Соотношение сторон : 16:9
Частота кадров : 23,976 кадра/сек

Видео #116
Идентификатор : 4113 (0x1011)
Формат : AVC
Формат/Информация : Advanced Video Codec
Продолжительность : 1 м. 53 с.
Ширина : 1920 пикселей
Высота : 1080 пикселей
Соотношение сторон : 16:9
Частота кадров : 23,976 кадра/сек

Видео #117
Идентификатор : 4113 (0x1011)
Формат : AVC
Формат/Информация : Advanced Video Codec
Продолжительность : 1 м. 53 с.
Ширина : 1920 пикселей
Высота : 1080 пикселей
Соотношение сторон : 16:9
Частота кадров : 23,976 кадра/сек

Видео #118
Идентификатор : 4113 (0x1011)
Формат : AVC
Формат/Информация : Advanced Video Codec
Продолжительность : 1 м. 53 с.
Ширина : 1920 пикселей
Высота : 1080 пикселей
Соотношение сторон : 16:9
Частота кадров : 23,976 кадра/сек

Видео #119
Идентификатор : 4113 (0x1011)
Формат : AVC
Формат/Информация : Advanced Video Codec
Продолжительность : 1 м. 53 с.
Ширина : 1920 пикселей
Высота : 1080 пикселей
Соотношение сторон : 16:9
Частота кадров : 23,976 кадра/сек

Видео #120
Идентификатор : 4113 (0x1011)
Формат : AVC
Формат/Информация : Advanced Video Codec
Продолжительность : 1 м. 53 с.
Ширина : 1920 пикселей
Высота : 1080 пикселей
Соотношение сторон : 16:9
Частота кадров : 23,976 кадра/сек

Видео #121
Идентификатор : 4113 (0x1011)
Формат : AVC
Формат/Информация : Advanced Video Codec
Продолжительность : 1 м. 53 с.
Ширина : 1920 пикселей
Высота : 1080 пикселей
Соотношение сторон : 16:9
Частота кадров : 23,976 кадра/сек

Видео #122
Идентификатор : 4113 (0x1011)
Формат : AVC
Формат/Информация : Advanced Video Codec
Продолжительность : 1 м. 53 с.
Ширина : 1920 пикселей
Высота : 1080 пикселей
Соотношение сторон : 16:9
Частота кадров : 23,976 кадра/сек

Видео #123
Идентификатор : 4113 (0x1011)
Формат : AVC
Формат/Информация : Advanced Video Codec
Продолжительность : 1 м. 53 с.
Ширина : 1920 пикселей
Высота : 1080 пикселей
Соотношение сторон : 16:9
Частота кадров : 23,976 кадра/сек

Видео #124
Идентификатор : 4113 (0x1011)
Формат : AVC
Формат/Информация : Advanced Video Codec
Продолжительность : 1 м. 53 с.
Ширина : 1920 пикселей
Высота : 1080 пикселей
Соотношение сторон : 16:9
Частота кадров : 23,976 кадра/сек

Видео #125
Идентификатор : 4113 (0x1011)
Формат : AVC
Формат/Информация : Advanced Video Codec
Продолжительность : 1 м. 53 с.
Ширина : 1920 пикселей
Высота : 1080 пикселей
Соотношение сторон : 16:9
Частота кадров : 23,976 кадра/сек

Видео #126
Идентификатор : 4113 (0x1011)
Формат : AVC
Формат/Информация : Advanced Video Codec
Продолжительность : 1 м. 53 с.
Ширина : 1920 пикселей
Высота : 1080 пикселей
Соотношение сторон : 16:9
Частота кадров : 23,976 кадра/сек

Видео #127
Идентификатор : 4113 (0x1011)
Формат : AVC
Формат/Информация : Advanced Video Codec
Продолжительность : 1 м. 53 с.
Ширина : 1920 пикселей
Высота : 1080 пикселей
Соотношение сторон : 16:9
Частота кадров : 23,976 кадра/сек

Видео #128
Идентификатор : 4113 (0x1011)
Формат : AVC
Формат/Информация : Advanced Video Codec
Продолжительность : 1 м. 53 с.
Ширина : 1920 пикселей
Высота : 1080 пикселей
Соотношение сторон : 16:9
Частота кадров : 23,976 кадра/сек

Видео #129
Идентификатор : 4113 (0x1011)
Формат : AVC
Формат/Информация : Advanced Video Codec
Продолжительность : 1 м. 53 с.
Ширина : 1920 пикселей
Высота : 1080 пикселей
Соотношение сторон : 16:9
Частота кадров : 23,976 кадра/сек

Видео #130
Идентификатор : 4113 (0x1011)
Формат : AVC
Формат/Информация : Advanced Video Codec
Продолжительность : 1 м. 53 с.
Ширина : 1920 пикселей
Высота : 1080 пикселей
Соотношение сторон : 16:9
Частота кадров : 23,976 кадра/сек

Видео #131
Идентификатор : 4113 (0x1011)
Формат : AVC
Формат/Информация : Advanced Video Codec
Продолжительность : 1 м. 53 с.
Ширина : 1920 пикселей
Высота : 1080 пикселей
Соотношение сторон : 16:9
Частота кадров : 23,976 кадра/сек

Видео #132
Идентификатор : 4113 (0x1011)
Формат : AVC
Формат/Информация : Advanced Video Codec
Продолжительность : 1 м. 53 с.
Ширина : 1920 пикселей
Высота : 1080 пикселей
Соотношение сторон : 16:9
Частота кадров : 23,976 кадра/сек

Видео #133
Идентификатор : 4113 (0x1011)
Формат : AVC
Формат/Информация : Advanced Video Codec
Продолжительность : 1 м. 53 с.
Ширина : 1920 пикселей
Высота : 1080 пикселей
Соотношение сторон : 16:9
Частота кадров : 23,976 кадра/сек

Видео #134
Идентификатор : 4113 (0x1011)
Формат : AVC
Формат/Информация : Advanced Video Codec
Продолжительность : 1 м. 53 с.
Ширина : 1920 пикселей
Высота : 1080 пикселей
Соотношение сторон : 16:9
Частота кадров : 23,976 кадра/сек

Видео #135
Идентификатор : 4113 (0x1011)
Формат : AVC
Формат/Информация : Advanced Video Codec
Продолжительность : 1 м. 53 с.
Ширина : 1920 пикселей
Высота : 1080 пикселей
Соотношение сторон : 16:9
Частота кадров : 23,976 кадра/сек

Видео #136
Идентификатор : 4113 (0x1011)
Формат : AVC
Формат/Информация : Advanced Video Codec
Продолжительность : 1 м. 53 с.
Ширина : 1920 пикселей
Высота : 1080 пикселей
Соотношение сторон : 16:9
Частота кадров : 23,976 кадра/сек

Видео #137
Идентификатор : 4113 (0x1011)
Формат : AVC
Формат/Информация : Advanced Video Codec
Продолжительность : 1 м. 53 с.
Ширина : 1920 пикселей
Высота : 1080 пикселей
Соотношение сторон : 16:9
Частота кадров : 23,976 кадра/сек

Видео #138
Идентификатор : 4113 (0x1011)
Формат : AVC
Формат/Информация : Advanced Video Codec
Продолжительность : 1 м. 53 с.
Ширина : 1920 пикселей
Высота : 1080 пикселей
Соотношение сторон : 16:9
Частота кадров : 23,976 кадра/сек

Видео #139
Идентификатор : 4113 (0x1011)
Формат : AVC
Формат/Информация : Advanced Video Codec
Продолжительность : 1 м. 53 с.
Ширина : 1920 пикселей
Высота : 1080 пикселей
Соотношение сторон : 16:9
Частота кадров : 23,976 кадра/сек

Видео #140
Идентификатор : 4113 (0x1011)
Формат : AVC
Формат/Информация : Advanced Video Codec
Продолжительность : 1 м. 53 с.
Ширина : 1920 пикселей
Высота : 1080 пикселей
Соотношение сторон : 16:9
Частота кадров : 23,976 кадра/сек

Видео #141
Идентификатор : 4113 (0x1011)
Формат : AVC
Формат/Информация : Advanced Video Codec
Продолжительность : 1 м. 53 с.
Ширина : 1920 пикселей
Высота : 1080 пикселей
Соотношение сторон : 16:9
Частота кадров : 23,976 кадра/сек

Видео #142
Идентификатор : 4113 (0x1011)
Формат : AVC
Формат/Информация : Advanced Video Codec
Продолжительность : 1 м. 53 с.
Ширина : 1920 пикселей
Высота : 1080 пикселей
Соотношение сторон : 16:9
Частота кадров : 23,976 кадра/сек

Видео #143
Идентификатор : 4113 (0x1011)
Формат : AVC
Формат/Информация : Advanced Video Codec
Продолжительность : 1 м. 53 с.
Ширина : 1920 пикселей
Высота : 1080 пикселей
Соотношение сторон : 16:9
Частота кадров : 23,976 кадра/сек

Видео #144
Идентификатор : 4113 (0x1011)
Формат : AVC
Формат/Информация : Advanced Video Codec
Продолжительность : 1 м. 53 с.
Ширина : 1920 пикселей
Высота : 1080 пикселей
Соотношение сторон : 16:9
Частота кадров : 23,976 кадра/сек

Видео #145
Идентификатор : 4113 (0x1011)
Формат : AVC
Формат/Информация : Advanced Video Codec
Продолжительность : 1 м. 53 с.
Ширина : 1920 пикселей
Высота : 1080 пикселей
Соотношение сторон : 16:9
Частота кадров : 23,976 кадра/сек

Видео #146
Идентификатор : 4113 (0x1011)
Формат : AVC
Формат/Информация : Advanced Video Codec
Продолжительность : 1 м. 53 с.
Ширина : 1920 пикселей
Высота : 1080 пикселей
Соотношение сторон : 16:9
Частота кадров : 23,976 кадра/сек

Видео #147
Идентификатор : 4113 (0x1011)
Формат : AVC
Формат/Информация : Advanced Video Codec
Продолжительность : 1 м. 53 с.
Ширина : 1920 пикселей
Высота : 1080 пикселей
Соотношение сторон : 16:9
Частота кадров : 23,976 кадра/сек

Видео #148
Идентификатор : 4113 (0x1011)
Формат : AVC
Формат/Информация : Advanced Video Codec
Продолжительность : 1 м. 53 с.
Ширина : 1920 пикселей
Высота : 1080 пикселей
Соотношение сторон : 16:9
Частота кадров : 23,976 кадра/сек

Видео #149
Идентификатор : 4113 (0x1011)
Формат : AVC
Формат/Информация : Advanced Video Codec
Продолжительность : 1 м. 53 с.
Ширина : 1920 пикселей
Высота : 1080 пикселей
Соотношение сторон : 16:9
Частота кадров : 23,976 кадра/сек

Видео #150
Идентификатор : 4113 (0x1011)
Формат : AVC
Формат/Информация : Advanced Video Codec
Продолжительность : 1 м. 53 с.
Ширина : 1920 пикселей
Высота : 1080 пикселей
Соотношение сторон : 16:9
Частота кадров : 23,976 кадра/сек

Видео #151
Идентификатор : 4113 (0x1011)
Формат : AVC
Формат/Информация : Advanced Video Codec
Продолжительность : 1 м. 53 с.
Ширина : 1920 пикселей
Высота : 1080 пикселей
Соотношение сторон : 16:9
Частота кадров : 23,976 кадра/сек

Видео #152
Идентификатор : 4113 (0x1011)
Формат : AVC
Формат/Информация : Advanced Video Codec
Продолжительность : 1 м. 53 с.
Ширина : 1920 пикселей
Высота : 1080 пикселей
Соотношение сторон : 16:9
Частота кадров : 23,976 кадра/сек

Аудио #1
Идентификатор : 4352 (0x1100)
Идентификатор меню : 1 (0x1)
Формат : AC-3
Формат/Информация : Audio Coding 3
Расширение режима : CM (complete main)
Параметр Endianness формата : Big
Идентификатор кодека : 129
Продолжительность : 1 м. 53 с.
Вид битрейта : Постоянный
Битрейт : 448 Кбит/сек
Каналы : 6 каналов
Расположение каналов : Front: L C R, Side: L R, LFE
Частота : 48,0 КГц
Битовая глубина : 16 бит
Метод сжатия : С потерями
Размер потока : 6,04 Мбайт (2%)
Язык : English
dialnorm : -31
dialnorm/String : -31 dB
compr : -0.28
compr/String : -0.28 dB
bsid : 6
dialnorm_Average : -31
dialnorm_Average/String : -31 dB
dialnorm_Minimum : -31
dialnorm_Minimum/String : -31 dB
dialnorm_Maximum : -31
dialnorm_Maximum/String : -31 dB
dialnorm_Count : 444
compr_Average : 5.36
compr_Average/String : 5.36 dB
compr_Minimum : -9.68
compr_Minimum/String : -9.68 dB
compr_Maximum : 5.74
compr_Maximum/String : 5.74 dB
compr_Count : 444
dynrng_Average : 5.35
dynrng_Average/String : 5.35 dB
dynrng_Minimum : -6.30
dynrng_Minimum/String : -6.30 dB
dynrng_Maximum : 5.74
dynrng_Maximum/String : 5.74 dB
dynrng_Count : 444
Оригинал : 00021.m2ts

Аудио #2
Идентификатор : 4352 (0x1100)
Формат : AC-3
Формат/Информация : Audio Coding 3
Продолжительность : 1 м. 53 с.
Частота : 48,0 КГц
Метод сжатия : С потерями
Язык : English

Аудио #3
Идентификатор : 4352 (0x1100)
Формат : AC-3
Формат/Информация : Audio Coding 3
Продолжительность : 1 м. 53 с.
Частота : 48,0 КГц
Метод сжатия : С потерями
Язык : English

Аудио #4
Идентификатор : 4352 (0x1100)
Формат : AC-3
Формат/Информация : Audio Coding 3
Продолжительность : 1 м. 53 с.
Частота : 48,0 КГц
Метод сжатия : С потерями
Язык : English

Аудио #5
Идентификатор : 4352 (0x1100)
Формат : AC-3
Формат/Информация : Audio Coding 3
Продолжительность : 1 м. 53 с.
Частота : 48,0 КГц
Метод сжатия : С потерями
Язык : English

Аудио #6
Идентификатор : 4352 (0x1100)
Формат : AC-3
Формат/Информация : Audio Coding 3
Продолжительность : 1 м. 53 с.
Частота : 48,0 КГц
Метод сжатия : С потерями
Язык : English

Аудио #7
Идентификатор : 4352 (0x1100)
Формат : AC-3
Формат/Информация : Audio Coding 3
Продолжительность : 1 м. 53 с.
Частота : 48,0 КГц
Метод сжатия : С потерями
Язык : English

Аудио #8
Идентификатор : 4352 (0x1100)
Формат : AC-3
Формат/Информация : Audio Coding 3
Продолжительность : 1 м. 53 с.
Частота : 48,0 КГц
Метод сжатия : С потерями
Язык : English

Аудио #9
Идентификатор : 4352 (0x1100)
Формат : AC-3
Формат/Информация : Audio Coding 3
Продолжительность : 1 м. 53 с.
Частота : 48,0 КГц
Метод сжатия : С потерями
Язык : English

Аудио #10
Идентификатор : 4352 (0x1100)
Формат : AC-3
Формат/Информация : Audio Coding 3
Продолжительность : 1 м. 53 с.
Частота : 48,0 КГц
Метод сжатия : С потерями
Язык : English

Аудио #11
Идентификатор : 4352 (0x1100)
Формат : AC-3
Формат/Информация : Audio Coding 3
Продолжительность : 1 м. 53 с.
Частота : 48,0 КГц
Метод сжатия : С потерями
Язык : English

Аудио #12
Идентификатор : 4352 (0x1100)
Формат : AC-3
Формат/Информация : Audio Coding 3
Продолжительность : 1 м. 53 с.
Частота : 48,0 КГц
Метод сжатия : С потерями
Язык : English

Аудио #13
Идентификатор : 4352 (0x1100)
Формат : AC-3
Формат/Информация : Audio Coding 3
Продолжительность : 1 м. 53 с.
Частота : 48,0 КГц
Метод сжатия : С потерями
Язык : English

Аудио #14
Идентификатор : 4352 (0x1100)
Формат : AC-3
Формат/Информация : Audio Coding 3
Продолжительность : 1 м. 53 с.
Частота : 48,0 КГц
Метод сжатия : С потерями
Язык : English

Аудио #15
Идентификатор : 4352 (0x1100)
Формат : AC-3
Формат/Информация : Audio Coding 3
Продолжительность : 1 м. 53 с.
Частота : 48,0 КГц
Метод сжатия : С потерями
Язык : English

Аудио #16
Идентификатор : 4352 (0x1100)
Формат : AC-3
Формат/Информация : Audio Coding 3
Продолжительность : 1 м. 53 с.
Частота : 48,0 КГц
Метод сжатия : С потерями
Язык : English

Аудио #17
Идентификатор : 4352 (0x1100)
Формат : AC-3
Формат/Информация : Audio Coding 3
Продолжительность : 1 м. 53 с.
Частота : 48,0 КГц
Метод сжатия : С потерями
Язык : English

Аудио #18
Идентификатор : 4352 (0x1100)
Формат : AC-3
Формат/Информация : Audio Coding 3
Продолжительность : 1 м. 53 с.
Частота : 48,0 КГц
Метод сжатия : С потерями
Язык : English

Аудио #19
Идентификатор : 4352 (0x1100)
Формат : AC-3
Формат/Информация : Audio Coding 3
Продолжительность : 1 м. 53 с.
Частота : 48,0 КГц
Метод сжатия : С потерями
Язык : English

Аудио #20
Идентификатор : 4352 (0x1100)
Формат : AC-3
Формат/Информация : Audio Coding 3
Продолжительность : 1 м. 53 с.
Частота : 48,0 КГц
Метод сжатия : С потерями
Язык : English

Аудио #21
Идентификатор : 4352 (0x1100)
Формат : AC-3
Формат/Информация : Audio Coding 3
Продолжительность : 1 м. 53 с.
Частота : 48,0 КГц
Метод сжатия : С потерями
Язык : English

Аудио #22
Идентификатор : 4352 (0x1100)
Формат : AC-3
Формат/Информация : Audio Coding 3
Продолжительность : 1 м. 53 с.
Частота : 48,0 КГц
Метод сжатия : С потерями
Язык : English

Аудио #23
Идентификатор : 4352 (0x1100)
Формат : AC-3
Формат/Информация : Audio Coding 3
Продолжительность : 1 м. 53 с.
Частота : 48,0 КГц
Метод сжатия : С потерями
Язык : English

Аудио #24
Идентификатор : 4352 (0x1100)
Формат : AC-3
Формат/Информация : Audio Coding 3
Продолжительность : 1 м. 53 с.
Частота : 48,0 КГц
Метод сжатия : С потерями
Язык : English

Аудио #25
Идентификатор : 4352 (0x1100)
Формат : AC-3
Формат/Информация : Audio Coding 3
Продолжительность : 1 м. 53 с.
Частота : 48,0 КГц
Метод сжатия : С потерями
Язык : English

Аудио #26
Идентификатор : 4352 (0x1100)
Формат : AC-3
Формат/Информация : Audio Coding 3
Продолжительность : 1 м. 53 с.
Частота : 48,0 КГц
Метод сжатия : С потерями
Язык : English

Аудио #27
Идентификатор : 4352 (0x1100)
Формат : AC-3
Формат/Информация : Audio Coding 3
Продолжительность : 1 м. 53 с.
Частота : 48,0 КГц
Метод сжатия : С потерями
Язык : English

Аудио #28
Идентификатор : 4352 (0x1100)
Формат : AC-3
Формат/Информация : Audio Coding 3
Продолжительность : 1 м. 53 с.
Частота : 48,0 КГц
Метод сжатия : С потерями
Язык : English

Аудио #29
Идентификатор : 4352 (0x1100)
Формат : AC-3
Формат/Информация : Audio Coding 3
Продолжительность : 1 м. 53 с.
Частота : 48,0 КГц
Метод сжатия : С потерями
Язык : English

Аудио #30
Идентификатор : 4352 (0x1100)
Формат : AC-3
Формат/Информация : Audio Coding 3
Продолжительность : 1 м. 53 с.
Частота : 48,0 КГц
Метод сжатия : С потерями
Язык : English

Аудио #31
Идентификатор : 4352 (0x1100)
Формат : AC-3
Формат/Информация : Audio Coding 3
Продолжительность : 1 м. 53 с.
Частота : 48,0 КГц
Метод сжатия : С потерями
Язык : English

Аудио #32
Идентификатор : 4352 (0x1100)
Формат : AC-3
Формат/Информация : Audio Coding 3
Продолжительность : 1 м. 53 с.
Частота : 48,0 КГц
Метод сжатия : С потерями
Язык : English

Аудио #33
Идентификатор : 4352 (0x1100)
Формат : AC-3
Формат/Информация : Audio Coding 3
Продолжительность : 1 м. 53 с.
Частота : 48,0 КГц
Метод сжатия : С потерями
Язык : English

Аудио #34
Идентификатор : 4352 (0x1100)
Формат : AC-3
Формат/Информация : Audio Coding 3
Продолжительность : 1 м. 53 с.
Частота : 48,0 КГц
Метод сжатия : С потерями
Язык : English

Аудио #35
Идентификатор : 4352 (0x1100)
Формат : AC-3
Формат/Информация : Audio Coding 3
Продолжительность : 1 м. 53 с.
Частота : 48,0 КГц
Метод сжатия : С потерями
Язык : English

Аудио #36
Идентификатор : 4352 (0x1100)
Формат : AC-3
Формат/Информация : Audio Coding 3
Продолжительность : 1 м. 53 с.
Частота : 48,0 КГц
Метод сжатия : С потерями
Язык : English

Аудио #37
Идентификатор : 4352 (0x1100)
Формат : AC-3
Формат/Информация : Audio Coding 3
Продолжительность : 1 м. 53 с.
Частота : 48,0 КГц
Метод сжатия : С потерями
Язык : English

Аудио #38
Идентификатор : 4352 (0x1100)
Формат : AC-3
Формат/Информация : Audio Coding 3
Продолжительность : 1 м. 53 с.
Частота : 48,0 КГц
Метод сжатия : С потерями
Язык : English

Аудио #39
Идентификатор : 4352 (0x1100)
Формат : AC-3
Формат/Информация : Audio Coding 3
Продолжительность : 1 м. 53 с.
Частота : 48,0 КГц
Метод сжатия : С потерями
Язык : English

Аудио #40
Идентификатор : 4352 (0x1100)
Формат : AC-3
Формат/Информация : Audio Coding 3
Продолжительность : 1 м. 53 с.
Частота : 48,0 КГц
Метод сжатия : С потерями
Язык : English

Аудио #41
Идентификатор : 4352 (0x1100)
Формат : AC-3
Формат/Информация : Audio Coding 3
Продолжительность : 1 м. 53 с.
Частота : 48,0 КГц
Метод сжатия : С потерями
Язык : English

Аудио #42
Идентификатор : 4352 (0x1100)
Формат : AC-3
Формат/Информация : Audio Coding 3
Продолжительность : 1 м. 53 с.
Частота : 48,0 КГц
Метод сжатия : С потерями
Язык : English

Аудио #43
Идентификатор : 4352 (0x1100)
Формат : AC-3
Формат/Информация : Audio Coding 3
Продолжительность : 1 м. 53 с.
Частота : 48,0 КГц
Метод сжатия : С потерями
Язык : English

Аудио #44
Идентификатор : 4352 (0x1100)
Формат : AC-3
Формат/Информация : Audio Coding 3
Продолжительность : 1 м. 53 с.
Частота : 48,0 КГц
Метод сжатия : С потерями
Язык : English

Аудио #45
Идентификатор : 4352 (0x1100)
Формат : AC-3
Формат/Информация : Audio Coding 3
Продолжительность : 1 м. 53 с.
Частота : 48,0 КГц
Метод сжатия : С потерями
Язык : English

Аудио #46
Идентификатор : 4352 (0x1100)
Формат : AC-3
Формат/Информация : Audio Coding 3
Продолжительность : 1 м. 53 с.
Частота : 48,0 КГц
Метод сжатия : С потерями
Язык : English

Аудио #47
Идентификатор : 4352 (0x1100)
Формат : AC-3
Формат/Информация : Audio Coding 3
Продолжительность : 1 м. 53 с.
Частота : 48,0 КГц
Метод сжатия : С потерями
Язык : English

Аудио #48
Идентификатор : 4352 (0x1100)
Формат : AC-3
Формат/Информация : Audio Coding 3
Продолжительность : 1 м. 53 с.
Частота : 48,0 КГц
Метод сжатия : С потерями
Язык : English

Аудио #49
Идентификатор : 4352 (0x1100)
Формат : AC-3
Формат/Информация : Audio Coding 3
Продолжительность : 1 м. 53 с.
Частота : 48,0 КГц
Метод сжатия : С потерями
Язык : English

Аудио #50
Идентификатор : 4352 (0x1100)
Формат : AC-3
Формат/Информация : Audio Coding 3
Продолжительность : 1 м. 53 с.
Частота : 48,0 КГц
Метод сжатия : С потерями
Язык : English

Аудио #51
Идентификатор : 4352 (0x1100)
Формат : AC-3
Формат/Информация : Audio Coding 3
Продолжительность : 1 м. 53 с.
Частота : 48,0 КГц
Метод сжатия : С потерями
Язык : English

Аудио #52
Идентификатор : 4352 (0x1100)
Формат : AC-3
Формат/Информация : Audio Coding 3
Продолжительность : 1 м. 53 с.
Частота : 48,0 КГц
Метод сжатия : С потерями
Язык : English

Аудио #53
Идентификатор : 4352 (0x1100)
Формат : AC-3
Формат/Информация : Audio Coding 3
Продолжительность : 1 м. 53 с.
Частота : 48,0 КГц
Метод сжатия : С потерями
Язык : English

Аудио #54
Идентификатор : 4352 (0x1100)
Формат : AC-3
Формат/Информация : Audio Coding 3
Продолжительность : 1 м. 53 с.
Частота : 48,0 КГц
Метод сжатия : С потерями
Язык : English

Аудио #55
Идентификатор : 4352 (0x1100)
Формат : AC-3
Формат/Информация : Audio Coding 3
Продолжительность : 1 м. 53 с.
Частота : 48,0 КГц
Метод сжатия : С потерями
Язык : English

Аудио #56
Идентификатор : 4352 (0x1100)
Формат : AC-3
Формат/Информация : Audio Coding 3
Продолжительность : 1 м. 53 с.
Частота : 48,0 КГц
Метод сжатия : С потерями
Язык : English

Аудио #57
Идентификатор : 4352 (0x1100)
Формат : AC-3
Формат/Информация : Audio Coding 3
Продолжительность : 1 м. 53 с.
Частота : 48,0 КГц
Метод сжатия : С потерями
Язык : English

Аудио #58
Идентификатор : 4352 (0x1100)
Формат : AC-3
Формат/Информация : Audio Coding 3
Продолжительность : 1 м. 53 с.
Частота : 48,0 КГц
Метод сжатия : С потерями
Язык : English

Аудио #59
Идентификатор : 4352 (0x1100)
Формат : AC-3
Формат/Информация : Audio Coding 3
Продолжительность : 1 м. 53 с.
Частота : 48,0 КГц
Метод сжатия : С потерями
Язык : English

Аудио #60
Идентификатор : 4352 (0x1100)
Формат : AC-3
Формат/Информация : Audio Coding 3
Продолжительность : 1 м. 53 с.
Частота : 48,0 КГц
Метод сжатия : С потерями
Язык : English

Аудио #61
Идентификатор : 4352 (0x1100)
Формат : AC-3
Формат/Информация : Audio Coding 3
Продолжительность : 1 м. 53 с.
Частота : 48,0 КГц
Метод сжатия : С потерями
Язык : English

Аудио #62
Идентификатор : 4352 (0x1100)
Формат : AC-3
Формат/Информация : Audio Coding 3
Продолжительность : 1 м. 53 с.
Частота : 48,0 КГц
Метод сжатия : С потерями
Язык : English

Аудио #63
Идентификатор : 4352 (0x1100)
Формат : AC-3
Формат/Информация : Audio Coding 3
Продолжительность : 1 м. 53 с.
Частота : 48,0 КГц
Метод сжатия : С потерями
Язык : English

Аудио #64
Идентификатор : 4352 (0x1100)
Формат : AC-3
Формат/Информация : Audio Coding 3
Продолжительность : 1 м. 53 с.
Частота : 48,0 КГц
Метод сжатия : С потерями
Язык : English

Аудио #65
Идентификатор : 4352 (0x1100)
Формат : AC-3
Формат/Информация : Audio Coding 3
Продолжительность : 1 м. 53 с.
Частота : 48,0 КГц
Метод сжатия : С потерями
Язык : English

Аудио #66
Идентификатор : 4352 (0x1100)
Формат : AC-3
Формат/Информация : Audio Coding 3
Продолжительность : 1 м. 53 с.
Частота : 48,0 КГц
Метод сжатия : С потерями
Язык : English

Аудио #67
Идентификатор : 4352 (0x1100)
Формат : AC-3
Формат/Информация : Audio Coding 3
Продолжительность : 1 м. 53 с.
Частота : 48,0 КГц
Метод сжатия : С потерями
Язык : English

Аудио #68
Идентификатор : 4352 (0x1100)
Формат : AC-3
Формат/Информация : Audio Coding 3
Продолжительность : 1 м. 53 с.
Частота : 48,0 КГц
Метод сжатия : С потерями
Язык : English

Аудио #69
Идентификатор : 4352 (0x1100)
Формат : AC-3
Формат/Информация : Audio Coding 3
Продолжительность : 1 м. 53 с.
Частота : 48,0 КГц
Метод сжатия : С потерями
Язык : English

Аудио #70
Идентификатор : 4352 (0x1100)
Формат : AC-3
Формат/Информация : Audio Coding 3
Продолжительность : 1 м. 53 с.
Частота : 48,0 КГц
Метод сжатия : С потерями
Язык : English

Аудио #71
Идентификатор : 4352 (0x1100)
Формат : AC-3
Формат/Информация : Audio Coding 3
Продолжительность : 1 м. 53 с.
Частота : 48,0 КГц
Метод сжатия : С потерями
Язык : English

Аудио #72
Идентификатор : 4352 (0x1100)
Формат : AC-3
Формат/Информация : Audio Coding 3
Продолжительность : 1 м. 53 с.
Частота : 48,0 КГц
Метод сжатия : С потерями
Язык : English

Аудио #73
Идентификатор : 4352 (0x1100)
Формат : AC-3
Формат/Информация : Audio Coding 3
Продолжительность : 1 м. 53 с.
Частота : 48,0 КГц
Метод сжатия : С потерями
Язык : English

Аудио #74
Идентификатор : 4352 (0x1100)
Формат : AC-3
Формат/Информация : Audio Coding 3
Продолжительность : 1 м. 53 с.
Частота : 48,0 КГц
Метод сжатия : С потерями
Язык : English

Аудио #75
Идентификатор : 4352 (0x1100)
Формат : AC-3
Формат/Информация : Audio Coding 3
Продолжительность : 1 м. 53 с.
Частота : 48,0 КГц
Метод сжатия : С потерями
Язык : English

Аудио #76
Идентификатор : 4352 (0x1100)
Формат : AC-3
Формат/Информация : Audio Coding 3
Продолжительность : 1 м. 53 с.
Частота : 48,0 КГц
Метод сжатия : С потерями
Язык : English

Аудио #77
Идентификатор : 4352 (0x1100)
Формат : AC-3
Формат/Информация : Audio Coding 3
Продолжительность : 1 м. 53 с.
Частота : 48,0 КГц
Метод сжатия : С потерями
Язык : English

Аудио #78
Идентификатор : 4352 (0x1100)
Формат : AC-3
Формат/Информация : Audio Coding 3
Продолжительность : 1 м. 53 с.
Частота : 48,0 КГц
Метод сжатия : С потерями
Язык : English

Аудио #79
Идентификатор : 4352 (0x1100)
Формат : AC-3
Формат/Информация : Audio Coding 3
Продолжительность : 1 м. 53 с.
Частота : 48,0 КГц
Метод сжатия : С потерями
Язык : English

Аудио #80
Идентификатор : 4352 (0x1100)
Формат : AC-3
Формат/Информация : Audio Coding 3
Продолжительность : 1 м. 53 с.
Частота : 48,0 КГц
Метод сжатия : С потерями
Язык : English

Аудио #81
Идентификатор : 4352 (0x1100)
Формат : AC-3
Формат/Информация : Audio Coding 3
Продолжительность : 1 м. 53 с.
Частота : 48,0 КГц
Метод сжатия : С потерями
Язык : English

Аудио #82
Идентификатор : 4352 (0x1100)
Формат : AC-3
Формат/Информация : Audio Coding 3
Продолжительность : 1 м. 53 с.
Частота : 48,0 КГц
Метод сжатия : С потерями
Язык : English

Аудио #83
Идентификатор : 4352 (0x1100)
Формат : AC-3
Формат/Информация : Audio Coding 3
Продолжительность : 1 м. 53 с.
Частота : 48,0 КГц
Метод сжатия : С потерями
Язык : English

Аудио #84
Идентификатор : 4352 (0x1100)
Формат : AC-3
Формат/Информация : Audio Coding 3
Продолжительность : 1 м. 53 с.
Частота : 48,0 КГц
Метод сжатия : С потерями
Язык : English

Аудио #85
Идентификатор : 4352 (0x1100)
Формат : AC-3
Формат/Информация : Audio Coding 3
Продолжительность : 1 м. 53 с.
Частота : 48,0 КГц
Метод сжатия : С потерями
Язык : English

Аудио #86
Идентификатор : 4352 (0x1100)
Формат : AC-3
Формат/Информация : Audio Coding 3
Продолжительность : 1 м. 53 с.
Частота : 48,0 КГц
Метод сжатия : С потерями
Язык : English

Аудио #87
Идентификатор : 4352 (0x1100)
Формат : AC-3
Формат/Информация : Audio Coding 3
Продолжительность : 1 м. 53 с.
Частота : 48,0 КГц
Метод сжатия : С потерями
Язык : English

Аудио #88
Идентификатор : 4352 (0x1100)
Формат : AC-3
Формат/Информация : Audio Coding 3
Продолжительность : 1 м. 53 с.
Частота : 48,0 КГц
Метод сжатия : С потерями
Язык : English

Аудио #89
Идентификатор : 4352 (0x1100)
Формат : AC-3
Формат/Информация : Audio Coding 3
Продолжительность : 1 м. 53 с.
Частота : 48,0 КГц
Метод сжатия : С потерями
Язык : English

Аудио #90
Идентификатор : 4352 (0x1100)
Формат : AC-3
Формат/Информация : Audio Coding 3
Продолжительность : 1 м. 53 с.
Частота : 48,0 КГц
Метод сжатия : С потерями
Язык : English

Аудио #91
Идентификатор : 4352 (0x1100)
Формат : AC-3
Формат/Информация : Audio Coding 3
Продолжительность : 1 м. 53 с.
Частота : 48,0 КГц
Метод сжатия : С потерями
Язык : English

Аудио #92
Идентификатор : 4352 (0x1100)
Формат : AC-3
Формат/Информация : Audio Coding 3
Продолжительность : 1 м. 53 с.
Частота : 48,0 КГц
Метод сжатия : С потерями
Язык : English

Аудио #93
Идентификатор : 4352 (0x1100)
Формат : AC-3
Формат/Информация : Audio Coding 3
Продолжительность : 1 м. 53 с.
Частота : 48,0 КГц
Метод сжатия : С потерями
Язык : English

Аудио #94
Идентификатор : 4352 (0x1100)
Формат : AC-3
Формат/Информация : Audio Coding 3
Продолжительность : 1 м. 53 с.
Частота : 48,0 КГц
Метод сжатия : С потерями
Язык : English

Аудио #95
Идентификатор : 4352 (0x1100)
Формат : AC-3
Формат/Информация : Audio Coding 3
Продолжительность : 1 м. 53 с.
Частота : 48,0 КГц
Метод сжатия : С потерями
Язык : English

Аудио #96
Идентификатор : 4352 (0x1100)
Формат : AC-3
Формат/Информация : Audio Coding 3
Продолжительность : 1 м. 53 с.
Частота : 48,0 КГц
Метод сжатия : С потерями
Язык : English

Аудио #97
Идентификатор : 4352 (0x1100)
Формат : AC-3
Формат/Информация : Audio Coding 3
Продолжительность : 1 м. 53 с.
Частота : 48,0 КГц
Метод сжатия : С потерями
Язык : English

Аудио #98
Идентификатор : 4352 (0x1100)
Формат : AC-3
Формат/Информация : Audio Coding 3
Продолжительность : 1 м. 53 с.
Частота : 48,0 КГц
Метод сжатия : С потерями
Язык : English

Аудио #99
Идентификатор : 4352 (0x1100)
Формат : AC-3
Формат/Информация : Audio Coding 3
Продолжительность : 1 м. 53 с.
Частота : 48,0 КГц
Метод сжатия : С потерями
Язык : English

Аудио #100
Идентификатор : 4352 (0x1100)
Формат : AC-3
Формат/Информация : Audio Coding 3
Продолжительность : 1 м. 53 с.
Частота : 48,0 КГц
Метод сжатия : С потерями
Язык : English

Аудио #101
Идентификатор : 4352 (0x1100)
Формат : AC-3
Формат/Информация : Audio Coding 3
Продолжительность : 1 м. 53 с.
Частота : 48,0 КГц
Метод сжатия : С потерями
Язык : English

Аудио #102
Идентификатор : 4352 (0x1100)
Формат : AC-3
Формат/Информация : Audio Coding 3
Продолжительность : 1 м. 53 с.
Частота : 48,0 КГц
Метод сжатия : С потерями
Язык : English

Аудио #103
Идентификатор : 4352 (0x1100)
Формат : AC-3
Формат/Информация : Audio Coding 3
Продолжительность : 1 м. 53 с.
Частота : 48,0 КГц
Метод сжатия : С потерями
Язык : English

Аудио #104
Идентификатор : 4352 (0x1100)
Формат : AC-3
Формат/Информация : Audio Coding 3
Продолжительность : 1 м. 53 с.
Частота : 48,0 КГц
Метод сжатия : С потерями
Язык : English

Аудио #105
Идентификатор : 4352 (0x1100)
Формат : AC-3
Формат/Информация : Audio Coding 3
Продолжительность : 1 м. 53 с.
Частота : 48,0 КГц
Метод сжатия : С потерями
Язык : English

Аудио #106
Идентификатор : 4352 (0x1100)
Формат : AC-3
Формат/Информация : Audio Coding 3
Продолжительность : 1 м. 53 с.
Частота : 48,0 КГц
Метод сжатия : С потерями
Язык : English

Аудио #107
Идентификатор : 4352 (0x1100)
Формат : AC-3
Формат/Информация : Audio Coding 3
Продолжительность : 1 м. 53 с.
Частота : 48,0 КГц
Метод сжатия : С потерями
Язык : English

Аудио #108
Идентификатор : 4352 (0x1100)
Формат : AC-3
Формат/Информация : Audio Coding 3
Продолжительность : 1 м. 53 с.
Частота : 48,0 КГц
Метод сжатия : С потерями
Язык : English

Аудио #109
Идентификатор : 4352 (0x1100)
Формат : AC-3
Формат/Информация : Audio Coding 3
Продолжительность : 1 м. 53 с.
Частота : 48,0 КГц
Метод сжатия : С потерями
Язык : English

Аудио #110
Идентификатор : 4352 (0x1100)
Формат : AC-3
Формат/Информация : Audio Coding 3
Продолжительность : 1 м. 53 с.
Частота : 48,0 КГц
Метод сжатия : С потерями
Язык : English

Аудио #111
Идентификатор : 4352 (0x1100)
Формат : AC-3
Формат/Информация : Audio Coding 3
Продолжительность : 1 м. 53 с.
Частота : 48,0 КГц
Метод сжатия : С потерями
Язык : English

Аудио #112
Идентификатор : 4352 (0x1100)
Формат : AC-3
Формат/Информация : Audio Coding 3
Продолжительность : 1 м. 53 с.
Частота : 48,0 КГц
Метод сжатия : С потерями
Язык : English

Аудио #113
Идентификатор : 4352 (0x1100)
Формат : AC-3
Формат/Информация : Audio Coding 3
Продолжительность : 1 м. 53 с.
Частота : 48,0 КГц
Метод сжатия : С потерями
Язык : English

Аудио #114
Идентификатор : 4352 (0x1100)
Формат : AC-3
Формат/Информация : Audio Coding 3
Продолжительность : 1 м. 53 с.
Частота : 48,0 КГц
Метод сжатия : С потерями
Язык : English

Аудио #115
Идентификатор : 4352 (0x1100)
Формат : AC-3
Формат/Информация : Audio Coding 3
Продолжительность : 1 м. 53 с.
Частота : 48,0 КГц
Метод сжатия : С потерями
Язык : English

Аудио #116
Идентификатор : 4352 (0x1100)
Формат : AC-3
Формат/Информация : Audio Coding 3
Продолжительность : 1 м. 53 с.
Частота : 48,0 КГц
Метод сжатия : С потерями
Язык : English

Аудио #117
Идентификатор : 4352 (0x1100)
Формат : AC-3
Формат/Информация : Audio Coding 3
Продолжительность : 1 м. 53 с.
Частота : 48,0 КГц
Метод сжатия : С потерями
Язык : English

Аудио #118
Идентификатор : 4352 (0x1100)
Формат : AC-3
Формат/Информация : Audio Coding 3
Продолжительность : 1 м. 53 с.
Частота : 48,0 КГц
Метод сжатия : С потерями
Язык : English

Аудио #119
Идентификатор : 4352 (0x1100)
Формат : AC-3
Формат/Информация : Audio Coding 3
Продолжительность : 1 м. 53 с.
Частота : 48,0 КГц
Метод сжатия : С потерями
Язык : English

Аудио #120
Идентификатор : 4352 (0x1100)
Формат : AC-3
Формат/Информация : Audio Coding 3
Продолжительность : 1 м. 53 с.
Частота : 48,0 КГц
Метод сжатия : С потерями
Язык : English

Аудио #121
Идентификатор : 4352 (0x1100)
Формат : AC-3
Формат/Информация : Audio Coding 3
Продолжительность : 1 м. 53 с.
Частота : 48,0 КГц
Метод сжатия : С потерями
Язык : English

Аудио #122
Идентификатор : 4352 (0x1100)
Формат : AC-3
Формат/Информация : Audio Coding 3
Продолжительность : 1 м. 53 с.
Частота : 48,0 КГц
Метод сжатия : С потерями
Язык : English

Аудио #123
Идентификатор : 4352 (0x1100)
Формат : AC-3
Формат/Информация : Audio Coding 3
Продолжительность : 1 м. 53 с.
Частота : 48,0 КГц
Метод сжатия : С потерями
Язык : English

Аудио #124
Идентификатор : 4352 (0x1100)
Формат : AC-3
Формат/Информация : Audio Coding 3
Продолжительность : 1 м. 53 с.
Частота : 48,0 КГц
Метод сжатия : С потерями
Язык : English

Аудио #125
Идентификатор : 4352 (0x1100)
Формат : AC-3
Формат/Информация : Audio Coding 3
Продолжительность : 1 м. 53 с.
Частота : 48,0 КГц
Метод сжатия : С потерями
Язык : English

Аудио #126
Идентификатор : 4352 (0x1100)
Формат : AC-3
Формат/Информация : Audio Coding 3
Продолжительность : 1 м. 53 с.
Частота : 48,0 КГц
Метод сжатия : С потерями
Язык : English

Аудио #127
Идентификатор : 4352 (0x1100)
Формат : AC-3
Формат/Информация : Audio Coding 3
Продолжительность : 1 м. 53 с.
Частота : 48,0 КГц
Метод сжатия : С потерями
Язык : English

Аудио #128
Идентификатор : 4352 (0x1100)
Формат : AC-3
Формат/Информация : Audio Coding 3
Продолжительность : 1 м. 53 с.
Частота : 48,0 КГц
Метод сжатия : С потерями
Язык : English

Аудио #129
Идентификатор : 4352 (0x1100)
Формат : AC-3
Формат/Информация : Audio Coding 3
Продолжительность : 1 м. 53 с.
Частота : 48,0 КГц
Метод сжатия : С потерями
Язык : English

Аудио #130
Идентификатор : 4352 (0x1100)
Формат : AC-3
Формат/Информация : Audio Coding 3
Продолжительность : 1 м. 53 с.
Частота : 48,0 КГц
Метод сжатия : С потерями
Язык : English

Аудио #131
Идентификатор : 4352 (0x1100)
Формат : AC-3
Формат/Информация : Audio Coding 3
Продолжительность : 1 м. 53 с.
Частота : 48,0 КГц
Метод сжатия : С потерями
Язык : English

Аудио #132
Идентификатор : 4352 (0x1100)
Формат : AC-3
Формат/Информация : Audio Coding 3
Продолжительность : 1 м. 53 с.
Частота : 48,0 КГц
Метод сжатия : С потерями
Язык : English

Аудио #133
Идентификатор : 4352 (0x1100)
Формат : AC-3
Формат/Информация : Audio Coding 3
Продолжительность : 1 м. 53 с.
Частота : 48,0 КГц
Метод сжатия : С потерями
Язык : English

Аудио #134
Идентификатор : 4352 (0x1100)
Формат : AC-3
Формат/Информация : Audio Coding 3
Продолжительность : 1 м. 53 с.
Частота : 48,0 КГц
Метод сжатия : С потерями
Язык : English

Аудио #135
Идентификатор : 4352 (0x1100)
Формат : AC-3
Формат/Информация : Audio Coding 3
Продолжительность : 1 м. 53 с.
Частота : 48,0 КГц
Метод сжатия : С потерями
Язык : English

Аудио #136
Идентификатор : 4352 (0x1100)
Формат : AC-3
Формат/Информация : Audio Coding 3
Продолжительность : 1 м. 53 с.
Частота : 48,0 КГц
Метод сжатия : С потерями
Язык : English

Аудио #137
Идентификатор : 4352 (0x1100)
Формат : AC-3
Формат/Информация : Audio Coding 3
Продолжительность : 1 м. 53 с.
Частота : 48,0 КГц
Метод сжатия : С потерями
Язык : English

Аудио #138
Идентификатор : 4352 (0x1100)
Формат : AC-3
Формат/Информация : Audio Coding 3
Продолжительность : 1 м. 53 с.
Частота : 48,0 КГц
Метод сжатия : С потерями
Язык : English

Аудио #139
Идентификатор : 4352 (0x1100)
Формат : AC-3
Формат/Информация : Audio Coding 3
Продолжительность : 1 м. 53 с.
Частота : 48,0 КГц
Метод сжатия : С потерями
Язык : English

Аудио #140
Идентификатор : 4352 (0x1100)
Формат : AC-3
Формат/Информация : Audio Coding 3
Продолжительность : 1 м. 53 с.
Частота : 48,0 КГц
Метод сжатия : С потерями
Язык : English

Аудио #141
Идентификатор : 4352 (0x1100)
Формат : AC-3
Формат/Информация : Audio Coding 3
Продолжительность : 1 м. 53 с.
Частота : 48,0 КГц
Метод сжатия : С потерями
Язык : English

Аудио #142
Идентификатор : 4352 (0x1100)
Формат : AC-3
Формат/Информация : Audio Coding 3
Продолжительность : 1 м. 53 с.
Частота : 48,0 КГц
Метод сжатия : С потерями
Язык : English

Аудио #143
Идентификатор : 4352 (0x1100)
Формат : AC-3
Формат/Информация : Audio Coding 3
Продолжительность : 1 м. 53 с.
Частота : 48,0 КГц
Метод сжатия : С потерями
Язык : English

Аудио #144
Идентификатор : 4352 (0x1100)
Формат : AC-3
Формат/Информация : Audio Coding 3
Продолжительность : 1 м. 53 с.
Частота : 48,0 КГц
Метод сжатия : С потерями
Язык : English

Аудио #145
Идентификатор : 4352 (0x1100)
Формат : AC-3
Формат/Информация : Audio Coding 3
Продолжительность : 1 м. 53 с.
Частота : 48,0 КГц
Метод сжатия : С потерями
Язык : English

Аудио #146
Идентификатор : 4352 (0x1100)
Формат : AC-3
Формат/Информация : Audio Coding 3
Продолжительность : 1 м. 53 с.
Частота : 48,0 КГц
Метод сжатия : С потерями
Язык : English

Аудио #147
Идентификатор : 4352 (0x1100)
Формат : AC-3
Формат/Информация : Audio Coding 3
Продолжительность : 1 м. 53 с.
Частота : 48,0 КГц
Метод сжатия : С потерями
Язык : English

Аудио #148
Идентификатор : 4352 (0x1100)
Формат : AC-3
Формат/Информация : Audio Coding 3
Продолжительность : 1 м. 53 с.
Частота : 48,0 КГц
Метод сжатия : С потерями
Язык : English

Аудио #149
Идентификатор : 4352 (0x1100)
Формат : AC-3
Формат/Информация : Audio Coding 3
Продолжительность : 1 м. 53 с.
Частота : 48,0 КГц
Метод сжатия : С потерями
Язык : English

Аудио #150
Идентификатор : 4352 (0x1100)
Формат : AC-3
Формат/Информация : Audio Coding 3
Продолжительность : 1 м. 53 с.
Частота : 48,0 КГц
Метод сжатия : С потерями
Язык : English

Аудио #151
Идентификатор : 4352 (0x1100)
Формат : AC-3
Формат/Информация : Audio Coding 3
Продолжительность : 1 м. 53 с.
Частота : 48,0 КГц
Метод сжатия : С потерями
Язык : English

Аудио #152
Идентификатор : 4352 (0x1100)
Формат : AC-3
Формат/Информация : Audio Coding 3
Продолжительность : 1 м. 53 с.
Частота : 48,0 КГц
Метод сжатия : С потерями
Язык : English

Меню
00:00:00.000 : Chapter 1
00:00:01.001 : Chapter 2

Общее
Полное имя : D:The Watch 2.0.1.2. 1080p Blu-rayCERTIFICATEapp.discroot.crt
Размер файла : 1,75 Кбайт

Общее
Полное имя : D:The Watch 2.0.1.2. 1080p Blu-rayCERTIFICATEBACKUPapp.discroot.crt
Размер файла : 2,00 Кбайт

Общее
Полное имя : D:The Watch 2.0.1.2. 1080p Blu-rayCERTIFICATEBACKUPbu.discroot.crt
Размер файла : 2,00 Кбайт

Общее
Полное имя : D:The Watch 2.0.1.2. 1080p Blu-rayCERTIFICATEBACKUPid.bdmv
Размер файла : 104 байт

Общее
Полное имя : D:The Watch 2.0.1.2. 1080p Blu-rayCERTIFICATEbu.discroot.crt
Размер файла : 2,00 Кбайт

Общее
Полное имя : D:The Watch 2.0.1.2. 1080p Blu-rayCERTIFICATEid.bdmv
Размер файла : 104 байт

Общее
Полное имя : D:The Watch 2.0.1.2. 1080p Blu-raydisc.inf
Размер файла : 69,0 байт

pb.wtf



Скачать Дружинники через торрент http://i46.fastpic.ru/big/2012/1105/ed/9e7444da84f7d7ba9eeedd7ca14485ed.jpg Скачать фильм Дружинники через торрент бесплантно в хорошем качестве Год выпуска: 2012Страна: СШАЖанр: Фантастика, комедияПродолжительность: 01:41:57Перевод: Профессиональный (полное дублирование) Cубтитры: ... 10 10 1
Info! Золотая раздача, скачанное не засчитывается.
Торрент: Зарегистрирован [2012-11-06 14:46] · скачан: 63 раз
Статус: √ проверено
Размер: 40.99 GB
Как cкачать? Как скачать Дружинники через торрент | qTorrent

% Раздел Тема Автор DL S | L
Фильмы [HD 720p, 1080p] (Хороший звук DUB, MVO) [ 11.91 GB ] Дружинники / The Watch [2012 BDRip 1080p][ лицензия ] Зайчина Скачать
1 | 0
Фильмы (DVD фильмы) [ 6.13 GB ] Дружинники / The Watch [2012 DVD9] R5 voovaz Скачать
1 | 0
Фильмы 2012 [ 1.46 GB ] Дружинники / The Watch [2012 HDRip DUB лицензия] Seedtank Скачать
1 | 0
Фильмы 2012 [ 2.05 GB ] Дружинники / The Watch [2012 HDRip DUB лицензия] Seedtank Скачать
1 | 0
Фильмы 2012 [ 1.45 GB ] Дружинники / The Watch [2012 HDRip - AVC DUB лицензия] Odessa Скачать
1 | 0
Фильмы 2012 [ 1.46 GB ] Дружинники / The Watch [2012 BDRip-AVC] DUB + Sub potroks Скачать
1 | 0
Фильмы 2012 [ 1.37 GB ] Дружинники / The Watch [2012 HDRip-AVC-Hi10P] DUB Ukr Eng Sub serg7628 Скачать
1 | 0

28-11-2019 20:33  

Отключить всю рекламу на сайте

08-11-2012 08:55 Дружинники Скачать торрент  

Вопрос: Blu-ray чьей страны производства?
Явно не Россия, т.к. ещё целый месяц до официального релиза у нас.pb.wtf





Последний раз редактировалось: kostak7 (2015-07-02 14:59), всего редактировалось 2 раз(а)

08-11-2012 10:51 Дружинники Скачать торрент  

kostak7
Китайцы!!!pb.wtf



09-11-2012 16:14 Дружинники Скачать торрент  

zaic1599 писал(а):

kostak7
Китайцы!!!

Ну конечно, кто ж ещё-то, как я сразу не догадался :Dpb.wtf



    Дорогой пользователь! Огромная просьба, поблагодарите релизера, оцените раздачу и оставьте свои комментарий, если Вы скачали Дружинники через торрент бесплатно! Внесите свою лепту в развитие PiratBit!
    Комментировать посты могут только пользователи прошедшие не сложную регистрацию
    Показать сообщения:    

    Дружинники через торрент
    Скачать бесплатно Дружинники
    Дружинники скачать торрент
    Дружинники смотреть онлайн
    Cкачать фильм Дружинники бесплатно
    Дружинники скачать торрент в хорошем качестве
    Дружинники смотреть онлайн бесплатно в хорошем качестве


    Вы не можете начинать темы
    Вы не можете отвечать на сообщения
    Вы не можете редактировать свои сообщения
    Вы не можете удалять свои сообщения
    Вы не можете голосовать в опросах
    Вы не можете прикреплять файлы к сообщениям
    Вы можете скачивать файлы