Ссылка на приватное зеркало нашего сайта всего за 1$. Внимание количество ограничено!!!

2 сезон

iTunes

1 сезон

1

2 сезон

2 сезон

iTunes

1 сезон

RePack

30

Ultimate

ВАЖНО

ИГРА 18+

pack

RePack

MK11
pack

Забери бонус

RePack

jed

!!Акция!!

Alien_Rage

RePack

fifa19

RePack

Assassins Creed: Odyssey

RePack

NEED FOR SPEED™ PAYBACK

4 сезон

9 сезон

Бесстыжие 9 сезон

Все сериалы

все сериалы на PB.wtf

RePack

FAR CRY 5
  

ДухLess (Роман Прыгунов) [2012 г., драма, DVDRip, Оригинал, лицензия] pb.wtf

ДухLess через торрент pb.wtf

Размер: 702 MB | Добавлен: 8 лет назад | Торрент скачан:545 раз
Скачать  

05-11-2012 07:34 ДухLess Скачать торрент  

ДухLess

Год выпуска: 2012
Страна: Россия
Жанр: драма
Продолжительность: 01:39:24
Перевод: Оригинал
Тип релиза: Лицензия

Режиссер: Роман Прыгунов
Продюссер: Петр Ануров, Фёдор Бондарчук, Дмитрий Рудовский
Сценарий: Денис Родимин, Сергей Минаев

Мировой рейтинг IMDB 6.60 (174)


В ролях: Данила Козловский, Артем Михалков, Михаил Ефремов, Мария Андреева, Артур Смольянинов, Мария Кожевникова, Сергей Белоголовцев, Игорь Войнаровский, Михаил Люлинецкий, Михаил Мухтасипов

Описание: Главный герой фильма — 29-летний топ-менеджер крупного международного банка по имени Макс. Он уверен, что жизнь удалась, ведь у него есть то, о чём многие не могут даже и мечтать: дорогая машина, пентхаус и вечеринки. Свою жизнь Максим тратит на зарабатывание денег, а деньги — на ночные клубы, шикарных девушек, кокаин и прочие атрибуты, так называемой, гламурной жизни. Но в какой-то момент к герою приходит осознание того, что с его жизнью что-то не так. И его мир начинает рушиться, подобно карточному домику. В картине говорится о переоценке себя и жизни вокруг, о преодолении внутреннего кризиса.

Качество: DVDRip
Формат: AVI
Видео кодек: XviD
Аудио кодек: MP3
Видео: 640x272 (2.35:1), 25 fps, XviD MPEG-4 ~832 kbps avg, 0.19 bit/pixel
Аудио#1: 48 kHz, MPEG Layer 3, 2 ch, ~128.00 kbps avg



Format : AVI
Format/Info : Audio Video Interleave
File size : 702 MiB
Duration : 1h 41mn
Overall bit rate : 970 Kbps
Writing application : VirtualDubMod 1.5.10.3 | www.virtualdub-fr.org || (build 2550/release)
Writing library : VirtualDubMod build 2550/release

Video
ID : 0
Format : MPEG-4 Visual
Format profile : Advanced Simple@L5
Format settings, BVOP : 2
Format settings, QPel : No
Format settings, GMC : No warppoints
Format settings, Matrix : Default (MPEG)
Muxing mode : Packed bitstream
Codec ID : XVID
Codec ID/Hint : XviD
Duration : 1h 41mn
Bit rate : 832 Kbps
Width : 640 pixels
Height : 272 pixels
Display aspect ratio : 2.35:1
Frame rate : 25.000 fps
Color space : YUV
Chroma subsampling : 4:2:0
Bit depth : 8 bits
Scan type : Progressive
Compression mode : Lossy
Bits/(Pixel*Frame) : 0.191
Stream size : 603 MiB (86%)
Writing library : XviD 73

Audio
ID : 1
Format : MPEG Audio
Format version : Version 1
Format profile : Layer 3
Codec ID : 55
Codec ID/Hint : MP3
Duration : 1h 41mn
Bit rate mode : Constant
Bit rate : 128 Kbps
Channel(s) : 2 channels
Sampling rate : 48.0 KHz
Compression mode : Lossy
Stream size : 92.6 MiB (13%)
Alignment : Aligned on interleaves
Interleave, duration : 40 ms (1.00 video frame)
Interleave, preload duration : 504 ms
Writing library : LAME3.99r
Encoding settings : -m s -V 4 -q 2 -lowpass 17 -b 128


ДухLess скачать торрент


pb.wtf



Скачать ДухLess через торрент http://i46.fastpic.ru/big/2012/1105/0b/1d4de524ebc18a3c26fb37f849e2ce0b.jpg Скачать фильм ДухLess через торрент бесплантно в хорошем качестве Описание: Главный герой фильма — 29-летний топ-менеджер крупного международного банка по имени Макс. Он уверен, что жизнь удалась, ведь у ... 10 10 4
Info! Золотая раздача, скачанное не засчитывается.
Торрент: Зарегистрирован [2012-11-06 15:31] · скачан: 545 раз
Статус: √ проверено
Размер: 702 MB
Как cкачать? Как скачать ДухLess через торрент | qTorrent

% Раздел Тема Автор DL S | L
Наши фильмы (HD, WEB-DL 720p, 1080p) [ 4.37 GB ] ДухLess 2 [2015 BDRip HEVC 1080p] Мичман37 Скачать
1 | 0
Наши фильмы (HD, WEB-DL 720p, 1080p) [ 4.15 GB ] ДухLess [2012 BDRip HEVC 1080p] Мичман37 Скачать
1 | 0
Наши новые фильмы 2015 [ 1.46 GB ] Духless 2 [2015 Россия DVDRip] DEVI Скачать
2 | 0
Наши новые фильмы 2015 [ 2.05 GB ] Духless 2 [2015 HDRip ] coc900 Скачать
1 | 0
Сборники на DVD и Сиквелы [DVDrip, WEB-DLRip, HDrip, BDRip] [ 2.92 GB ] ДухLess [2012-2015 BDRip-AVC] potroks Скачать
1 | 0
Наши новые фильмы 2015 [ 1.46 GB ] ДухLess 2 [2015 DVDRip-AVC] Оригинал Бумер Скачать
1 | 0
Наши новые фильмы 2015 [ 738 MB ] Духless 2 [2015 DVDRip] khagkfgkahgaer Скачать
1 | 0

28-11-2019 20:33  

Отключить всю рекламу на сайте

05-11-2012 13:37 ДухLess Скачать торрент  

Классный фильм.pb.wtf



08-03-2013 06:21 ДухLess Скачать торрент  

да фильм действительно не плохой. Рекомендую!pb.wtf



    Дорогой пользователь! Огромная просьба, поблагодарите релизера, оцените раздачу и оставьте свои комментарий, если Вы скачали ДухLess через торрент бесплатно! Внесите свою лепту в развитие PiratBit!
    Комментировать посты могут только пользователи прошедшие не сложную регистрацию
    Показать сообщения:    

    ДухLess через торрент
    Скачать бесплатно ДухLess
    ДухLess скачать торрент
    ДухLess смотреть онлайн
    Cкачать фильм ДухLess бесплатно
    ДухLess скачать торрент в хорошем качестве
    ДухLess смотреть онлайн бесплатно в хорошем качестве


    Вы не можете начинать темы
    Вы не можете отвечать на сообщения
    Вы не можете редактировать свои сообщения
    Вы не можете удалять свои сообщения
    Вы не можете голосовать в опросах
    Вы не можете прикреплять файлы к сообщениям
    Вы можете скачивать файлы