Ссылка на приватное зеркало нашего сайта всего за 1$. Внимание количество ограничено!!!

2 сезон

iTunes

1 сезон

1

iTunes

iTunes

iTunes

1 сезон

RePack

30

ИГРА 18+

pack

ВАЖНО

!!Акция!!

Alien_RageХит недели

RePack

MK11
pack

Забери бонус

RePack

jed

!!Акция!!

Alien_Rage

RePack

fifa19

RePack

Assassins Creed: Odyssey

RePack

NEED FOR SPEED™ PAYBACK

4 сезон

9 сезон

Бесстыжие 9 сезон

Все сериалы

все сериалы на PB.wtf

RePack

FAR CRY 5
  

Третий лишний​ / Ted (Сет МакФарлейн) [2012 г., фэнтези, комедия, BDRip (720p)] DUB pb.wtf

Третий лишний​ через торрент pb.wtf

Размер: 5.49 GB | Добавлен: 7 лет 11 мес. назад | Торрент скачан:1509 раз
Скачать  

08-11-2012 02:31 Третий лишний​ Скачать торрент  

Третий лишний​ / Ted

Год выпуска: 2012
Страна: США
Жанр: фэнтези, комедия
Продолжительность: 01:46:03
Перевод: Профессиональный (полное дублирование) [Лицензия]

  • Режиссер: Сет МакФарлейн
  • Продюссер: Джейсон Кларк, Джон Джейкобс, Сет МакФарлейн
  • Сценарий: Сет МакФарлейн, Алек Салкин, Веллесли Вайлд


В ролях: Марк Уолберг, Мила Кунис, Сет МакФарлейн, Джоэль МакХэйл, Джованни Рибизи, Патрик Варбертон, Мэтт Уолш, Джессика Барт, Аэдин Минкс, Билл Смитрович

Описание: Джон влюблен в красавицу Лори, у него отличная работа и большие планы на будущее. Но в их отношения вмешивается третий, давний друг Джона — Тед. Он отрывается сутки напролет, предпочитает случайные связи и не желает терять друга. Но никто на самом деле не знает на что он способен, ведь Тед — большой плюшевый медведь.

  • Качество: BDRip (720p)
  • Формат: MKV
  • Видео кодек: AVC
  • Аудио кодек: DTS
  • Видео: AVC, 1280x688 (1.860), 23.976 fps, 5 130 Kbps (0.243 bit/pixel)
  • Аудио#1: DTS, 48.0 KHz, 6 ch, 755 Kbps, CBR (Русский)
  • Аудио#2: DTS, 48.0 KHz, 6 ch, 1 510 Kbps, CBR (Английский)


Скриншоты

скриншот   скриншот   скриншот   скриншот  


Код:

Общее
Уникальный идентификатор                 : 234670471395740916723963098992413582748 (0xB08BE387E6F4BB18BB6F0277BE45259C)
Полное имя                               : E:Tretij.lishnij.2012.D.BDRip.720p.mkv
Формат                                   : Matroska
Версия формата                           : Version 2
Размер файла                             : 5,49 Гбайт
Продолжительность                        : 1 ч. 46 м.
Общий поток                              : 7408 Кбит/сек
Дата кодирования                         : UTC 2012-11-08 00:02:19
Программа кодирования                    : mkvmerge v4.9.1 ('Ich will') built on Jul 11 2011 23:53:15
Библиотека кодирования                   : libebml v1.2.1 + libmatroska v1.1.1

Видео
Идентификатор                            : 1
Формат                                   : AVC
Формат/Информация                        : Advanced Video Codec
Профиль формата                          : High@L4.1
Параметр CABAC формата                   : Да
Параметр ReFrames формата                : 5 кадров
Идентификатор кодека                     : V_MPEG4/ISO/AVC
Продолжительность                        : 1 ч. 46 м.
Битрейт                                  : 5130 Кбит/сек
Ширина                                   : 1280 пикселей
Высота                                   : 688 пикселей
Соотношение сторон                       : 1,85:1
Режим частоты кадров                     : Постоянный
Частота кадров                           : 23,976 кадра/сек
Цветовое пространство                    : YUV
Субдискретизация насыщенности            : 4:2:0
Битовая глубина                          : 8 бит
Тип развёртки                            : Прогрессивная
Бит/(Пиксели*Кадры)                      : 0.243
Размер потока                            : 3,69 Гбайт (67%)
Заголовок                                : Ted (2012)
Библиотека кодирования                   : x264 core 128 r2216 198a7ea
Настройки программы                      : cabac=1 / ref=5 / deblock=1:0:0 / analyse=0x3:0x133 / me=umh / subme=7 / psy=1 / psy_rd=1.00:0.00 / mixed_ref=1 / me_range=16 / chroma_me=1 / trellis=1 / 8x8dct=1 / cqm=0 / deadzone=21,11 / fast_pskip=1 / chroma_qp_offset=-2 / threads=18 / lookahead_threads=3 / sliced_threads=0 / nr=0 / decimate=1 / interlaced=0 / bluray_compat=0 / constrained_intra=0 / bframes=3 / b_pyramid=2 / b_adapt=2 / b_bias=0 / direct=3 / weightb=1 / open_gop=0 / weightp=2 / keyint=250 / keyint_min=23 / scenecut=40 / intra_refresh=0 / rc_lookahead=40 / rc=2pass / mbtree=1 / bitrate=5130 / ratetol=1.0 / qcomp=0.60 / qpmin=0 / qpmax=69 / qpstep=4 / cplxblur=20.0 / qblur=0.5 / ip_ratio=1.40 / aq=1:1.00
Язык                                     : English
Default                                  : Да
Forced                                   : Да

Аудио #1
Идентификатор                            : 2
Формат                                   : DTS
Формат/Информация                        : Digital Theater Systems
Режим                                    : 16
Параметр Endianness формата              : Big
Идентификатор кодека                     : A_DTS
Продолжительность                        : 1 ч. 46 м.
Вид битрейта                             : Постоянный
Битрейт                                  : 768 Кбит/сек
Каналы                                   : 6 каналов
Расположение каналов                     : Front: L C R, Side: L R, LFE
Частота                                  : 48,0 КГц
Битовая глубина                          : 24 бит
Метод сжатия                             : С потерями
Размер потока                            : 583 Мбайт (10%)
Заголовок                                : DTS 5.1 @ 755 kbps - Dub, BD CEE
Язык                                     : Russian
Default                                  : Да
Forced                                   : Да

Аудио #2
Идентификатор                            : 3
Формат                                   : DTS
Формат/Информация                        : Digital Theater Systems
Режим                                    : 16
Параметр Endianness формата              : Big
Идентификатор кодека                     : A_DTS
Продолжительность                        : 1 ч. 46 м.
Вид битрейта                             : Постоянный
Битрейт                                  : 1509 Кбит/сек
Каналы                                   : 6 каналов
Расположение каналов                     : Front: L C R, Side: L R, LFE
Частота                                  : 48,0 КГц
Битовая глубина                          : 24 бит
Метод сжатия                             : С потерями
Размер потока                            : 1,12 Гбайт (20%)
Заголовок                                : DTS 5.1 @ 1536 kbps
Язык                                     : English
Default                                  : Нет
Forced                                   : Нет

Меню
00:00:00.000                             : en:Chapter 01
00:04:05.912                             : en:Chapter 02
00:10:11.819                             : en:Chapter 03
00:15:25.132                             : en:Chapter 04
00:19:31.545                             : en:Chapter 05
00:25:47.879                             : en:Chapter 06
00:30:48.972                             : en:Chapter 07
00:34:31.194                             : en:Chapter 08
00:41:05.045                             : en:Chapter 09
00:47:41.692                             : en:Chapter 10
00:52:33.942                             : en:Chapter 11
00:58:44.395                             : en:Chapter 12
01:03:42.360                             : en:Chapter 13
01:08:20.638                             : en:Chapter 14
01:13:04.421                             : en:Chapter 15
01:17:35.025                             : en:Chapter 16
01:24:12.630                             : en:Chapter 17
01:31:35.490                             : en:Chapter 18
01:35:17.670                             : en:Chapter 19
01:40:34.737                             : en:Chapter 20

pb.wtf



Скачать Третий лишний​ через торрент http://pic.kartinco.top/images/1/uz9zx77kdz.png Скачать фильм Третий лишний​ через торрент бесплантно в хорошем качестве Описание: Джон влюблен в красавицу Лори, у него отличная работа и большие планы на будущее. Но в их отношения вмешивается третий, давний ... 9.4 10 5
Info! Золотая раздача, скачанное не засчитывается.
Торрент: Зарегистрирован [2012-11-08 02:31] · скачан: 1 509 раз
Статус: √ проверено
Размер: 5.49 GB
Как cкачать? Как скачать Третий лишний​ через торрент | qTorrent

% Раздел Тема Автор DL S | L
Фильмы (WEB-DL 720p, 1080p) [ 10.23 GB ] Третий лишний 2 / Ted 2 [2015 WEB-DL 1080p ] [Театральная версия] DUB [] +AVO [Есарев] bober100 Скачать
1 | 0
Фильмы 2012 [ 1.46 GB ] Третий лишний / Ted [2012 BDRip-AVC] DUB potroks Скачать
1 | 0
Фильмы 2015 [DVDrip, WEB-DLRip, HDrip] [ 1.46 GB ] Третий лишний 2 / Ted 2 [2015 BDRip-AVC] Dub potroks Скачать
1 | 0
Фильмы 2015 [DVDrip, WEB-DLRip, HDrip] [ 1.46 GB ] Третий лишний 2 / Ted 2 [2015 BDRip] Dub Twi7ter Скачать
1 | 0
Фильмы 2015 [DVDrip, WEB-DLRip, HDrip] [ 2.05 GB ] Третий лишний 2 / Ted 2 [2015 HDRip] [Unrated Cut] killermax2013 Скачать
1 | 0
Фильмы 2015 [DVDrip, WEB-DLRip, HDrip] [ 1.7 GB ] Третий лишний 2 / Ted 2 [2015 WEB-DLRip-AVC] killermax2013 Скачать
1 | 0
Фильмы 2012 [ 2.18 GB ] Третий лишний / Ted [2012 BDRip-AVC] DUB potroks Скачать
1 | 0

28-11-2019 20:33  

Отключить всю рекламу на сайте

08-11-2012 05:20 Третий лишний​ Скачать торрент  

а в гоблине когда выложат?pb.wtf



08-11-2012 05:50 Третий лишний​ Скачать торрент  

А перевод от Гланца кто знает будет или нет ?
Будет обязательноpb.wtf



08-11-2012 06:50 Третий лишний​ Скачать торрент  

Ну вот и дождались. Спасибо !pb.wtf



08-11-2012 08:38 Третий лишний​ Скачать торрент  

Качаю, спасибо!pb.wtf



08-11-2012 10:30 Третий лишний​ Скачать торрент  

Спасибо за фильм,вечерком посмотрим.pb.wtf



08-11-2012 12:07 Третий лишний​ Скачать торрент  

спасибо, дождался, фильм на отличноpb.wtf



08-11-2012 16:30 Третий лишний​ Скачать торрент  

glinskiyroman писал(а):

А перевод от Гланца кто знает будет или нет ?
Будет обязательно

А когда никто не в курсе?pb.wtf



26-11-2012 17:46 Третий лишний​ Скачать торрент  

да качественного американского юмора все меньше и меньше.....pb.wtf



27-11-2012 19:01 Третий лишний​ Скачать торрент  

Rainmin писал(а):

да качественного американского юмора все меньше и меньше.....

Хотелось бы примера именно КАЧЕСТВЕННОГО и американского юмора?pb.wtf



    Дорогой пользователь! Огромная просьба, поблагодарите релизера, оцените раздачу и оставьте свои комментарий, если Вы скачали Третий лишний​ через торрент бесплатно! Внесите свою лепту в развитие PiratBit!
    Комментировать посты могут только пользователи прошедшие не сложную регистрацию
    Показать сообщения:    

    Третий лишний​ через торрент
    Скачать бесплатно Третий лишний​
    Третий лишний​ скачать торрент
    Третий лишний​ смотреть онлайн
    Cкачать фильм Третий лишний​ бесплатно
    Третий лишний​ скачать торрент в хорошем качестве
    Третий лишний​ смотреть онлайн бесплатно в хорошем качестве


    Вы не можете начинать темы
    Вы не можете отвечать на сообщения
    Вы не можете редактировать свои сообщения
    Вы не можете удалять свои сообщения
    Вы не можете голосовать в опросах
    Вы не можете прикреплять файлы к сообщениям
    Вы можете скачивать файлы