Доктор Стрэндж

Лицензия

Добыча

Дубляж

Уэнсдэй

1 сезон

Тор

Дубляж

В эфире

Дубляж

Там, где раки поют

MVO

Властелин колец

1 сезон

Deluxe

pack

Рекомендуем

30

Пиратка

ВАЖНО

ВАЖНО

Ghostwire

Пиратка

jed

RePack

nioh2

RePack

RDR2

RePack

NEED FOR SPEED™ PAYBACK

RePack

скачать торрент

Кинопоиск HD

Острые козырьки 6 сезон

6 сезон

FAR CRY 6

RePack

скачать торрент

Лицензия

скачать торрент

MVO

1

1 сезон

скачать торрент

1 сезон

скачать торрент

Лицензия

  

Жажда странствий / Wanderlust (Дэвид Уэйн) [2012 г., мелодрама, комедия, Blu-ray, лицензия]

Жажда странствий через торрент pb.wtf

Размер: 40.43 GB | Добавлен: 10 лет назад | Торрент скачан:16 раз
Смотреть онлайн | Скачать   

09-11-2012 22:25 Жажда странствий Скачать торрент  

Жажда странствий / Wanderlust

Год выпуска: 2012
Страна: США
Жанр: мелодрама, комедия
Продолжительность: 01:38:00
Перевод: Дубляж, Лицензия

Режиссер: Дэвид Уэйн
Продюссер: Джудд Апатоу, Кен Марино, Пол Радд
Сценарий: Дэвид Уэйн, Кен Марино

Мировой рейтинг IMDB 5.60 (28 129)


В ролях: Пол Радд, Дженнифер Энистон, Джастин Теру, Алан Алда, Малин Акерман, Кен Марино, Джо Ло Труглио, Кэтрин Хан, Керри Кенни, Лорен Эмброуз, Ольга Плетнёва, Денис Беспалый, Андрей Бархударов, Любовь Германова, Жанна Никонова

Описание: Герои фильма Линда и Джордж — самые обыкновенные городские жители. И живут они в самом обыкновенном Нью-Йорке. Но что делать, когда быт и окружающие тебя люди, то, чем ты занимаешься, да и вообще всё вокруг, начинает тебя жутко раздражать? Выход один — сменить обстановку. Так и поступает семейная пара, меняя суматошный Нью-Йорк на более спокойный небольшой городок, чтобы отдохнуть, а заодно приобщиться к тамошней культуре.

Качество: Blu-ray
Формат: BDAV
Видео кодек: AVC
Аудио кодек: DTS
Видео: AVC, 1920x1080 (16:9), 23.976 fps, 30.6 Mbps (0.616 bit/pixel)
Аудио#1: Английский, DTS MA / Core, 48.0 KHz, 6 ch, 1 576 Kbps / 1 510 Kbps, VBR
Аудио#2: Русский, DTS, 48.0 KHz, 6 ch, 755 Kbps, CBR
Аудио#3: Португальский, DTS, 48.0 KHz, 6 ch, 755 Kbps, CBR
Аудио#4: Чешский, DTS, 48.0 KHz, 6 ch, 755 Kbps, CBR
Аудио#5: Венгерский, DTS, 48.0 KHz, 6 ch, 755 Kbps, CBR
Аудио#6: Испанский, DTS, 48.0 KHz, 6 ch, 755 Kbps, CBR
Аудио#7: Польский, DTS, 48.0 KHz, 6 ch, 755 Kbps, CBR
Аудио#8: Тайский, DTS, 48.0 KHz, 6 ch, 755 Kbps, CBR
Аудио#9: Турецкий, DTS, 48.0 KHz, 6 ch, 755 Kbps, CBR
Субтитры: Русские, Английские, Португальские, Чешские, Венгерские, Испанские, Польские, Тайские, Турецкие, Греческие, Румынские
Релиз от:
скриншот   скриншот   скриншот   скриншот  

Формат : BDAV
Формат/Информация : Blu-ray Video
Размер файла : 27,3 Гбайт
Продолжительность : 1 ч. 38 м.
Режим общего битрейта : Переменный
Общий поток : 39,8 Мбит/сек
Максимальный общий битрейт : 48,0 Мбит/сек

Видео
Идентификатор : 4113 (0x1011)
Идентификатор меню : 1 (0x1)
Формат : AVC
Формат/Информация : Advanced Video Codec
Профиль формата : [email protected]
Параметр CABAC формата : Да
Параметр ReFrames формата : 4 кадра
Идентификатор кодека : 27
Продолжительность : 1 ч. 38 м.
Вид битрейта : Переменный
Максимальный битрейт : 34,0 Мбит/сек
Ширина : 1920 пикселей
Высота : 1080 пикселей
Соотношение сторон : 16:9
Частота кадров : 23,976 кадра/сек
Цветовое пространство : YUV
Субдискретизация насыщенности : 4:2:0
Битовая глубина : 8 бит
Тип развёртки : Прогрессивная

Аудио #1
Идентификатор : 4352 (0x1100)
Идентификатор меню : 1 (0x1)
Формат : DTS
Формат/Информация : Digital Theater Systems
Профиль формата : MA / Core
Режим : 16
Параметр Endianness формата : Big
Режим смешивания : Stream extension
Идентификатор кодека : 134
Продолжительность : 1 ч. 38 м.
Вид битрейта : Переменный
Битрейт : Неизвестно / 1509 Кбит/сек
Каналы : 6 каналов
Расположение каналов : Front: L C R, Side: L R, LFE
Частота : 48,0 КГц
Битовая глубина : 24 бит
Метод сжатия : Без потерь / Lossy

Аудио #2
Идентификатор : 4353 (0x1101)
Идентификатор меню : 1 (0x1)
Формат : DTS
Формат/Информация : Digital Theater Systems
Режим : 16
Параметр Endianness формата : Big
Идентификатор кодека : 130
Продолжительность : 1 ч. 38 м.
Вид битрейта : Постоянный
Битрейт : 768 Кбит/сек
Каналы : 6 каналов
Расположение каналов : Front: L C R, Side: L R, LFE
Частота : 48,0 КГц
Битовая глубина : 24 бит
Метод сжатия : С потерями
Размер потока : 538 Мбайт (2%)

Аудио #3
Идентификатор : 4354 (0x1102)
Идентификатор меню : 1 (0x1)
Формат : DTS
Формат/Информация : Digital Theater Systems
Режим : 16
Параметр Endianness формата : Big
Идентификатор кодека : 130
Продолжительность : 1 ч. 38 м.
Вид битрейта : Постоянный
Битрейт : 768 Кбит/сек
Каналы : 6 каналов
Расположение каналов : Front: L C R, Side: L R, LFE
Частота : 48,0 КГц
Битовая глубина : 24 бит
Метод сжатия : С потерями
Размер потока : 538 Мбайт (2%)

Аудио #4
Идентификатор : 4355 (0x1103)
Идентификатор меню : 1 (0x1)
Формат : DTS
Формат/Информация : Digital Theater Systems
Режим : 16
Параметр Endianness формата : Big
Идентификатор кодека : 130
Продолжительность : 1 ч. 38 м.
Вид битрейта : Постоянный
Битрейт : 768 Кбит/сек
Каналы : 6 каналов
Расположение каналов : Front: L C R, Side: L R, LFE
Частота : 48,0 КГц
Битовая глубина : 24 бит
Метод сжатия : С потерями
Размер потока : 538 Мбайт (2%)

Аудио #5
Идентификатор : 4356 (0x1104)
Идентификатор меню : 1 (0x1)
Формат : DTS
Формат/Информация : Digital Theater Systems
Режим : 16
Параметр Endianness формата : Big
Идентификатор кодека : 130
Продолжительность : 1 ч. 38 м.
Вид битрейта : Постоянный
Битрейт : 768 Кбит/сек
Каналы : 6 каналов
Расположение каналов : Front: L C R, Side: L R, LFE
Частота : 48,0 КГц
Битовая глубина : 24 бит
Метод сжатия : С потерями
Размер потока : 538 Мбайт (2%)

Аудио #6
Идентификатор : 4357 (0x1105)
Идентификатор меню : 1 (0x1)
Формат : DTS
Формат/Информация : Digital Theater Systems
Режим : 16
Параметр Endianness формата : Big
Идентификатор кодека : 130
Продолжительность : 1 ч. 38 м.
Вид битрейта : Постоянный
Битрейт : 768 Кбит/сек
Каналы : 6 каналов
Расположение каналов : Front: L C R, Side: L R, LFE
Частота : 48,0 КГц
Битовая глубина : 24 бит
Метод сжатия : С потерями
Размер потока : 538 Мбайт (2%)

Аудио #7
Идентификатор : 4358 (0x1106)
Идентификатор меню : 1 (0x1)
Формат : DTS
Формат/Информация : Digital Theater Systems
Режим : 16
Параметр Endianness формата : Big
Идентификатор кодека : 130
Продолжительность : 1 ч. 38 м.
Вид битрейта : Постоянный
Битрейт : 768 Кбит/сек
Каналы : 6 каналов
Расположение каналов : Front: L C R, Side: L R, LFE
Частота : 48,0 КГц
Битовая глубина : 24 бит
Метод сжатия : С потерями
Размер потока : 538 Мбайт (2%)

Аудио #8
Идентификатор : 4359 (0x1107)
Идентификатор меню : 1 (0x1)
Формат : DTS
Формат/Информация : Digital Theater Systems
Режим : 16
Параметр Endianness формата : Big
Идентификатор кодека : 130
Продолжительность : 1 ч. 38 м.
Вид битрейта : Постоянный
Битрейт : 768 Кбит/сек
Каналы : 6 каналов
Расположение каналов : Front: L C R, Side: L R, LFE
Частота : 48,0 КГц
Битовая глубина : 24 бит
Метод сжатия : С потерями
Размер потока : 538 Мбайт (2%)

Аудио #9
Идентификатор : 4360 (0x1108)
Идентификатор меню : 1 (0x1)
Формат : DTS
Формат/Информация : Digital Theater Systems
Режим : 16
Параметр Endianness формата : Big
Идентификатор кодека : 130
Продолжительность : 1 ч. 38 м.
Вид битрейта : Постоянный
Битрейт : 768 Кбит/сек
Каналы : 6 каналов
Расположение каналов : Front: L C R, Side: L R, LFE
Частота : 48,0 КГц
Битовая глубина : 24 бит
Метод сжатия : С потерями
Размер потока : 538 Мбайт (2%)

Текст #1
Идентификатор : 4608 (0x1200)
Идентификатор меню : 1 (0x1)
Формат : PGS
Идентификатор кодека : 144

Текст #2
Идентификатор : 4609 (0x1201)
Идентификатор меню : 1 (0x1)
Формат : PGS
Идентификатор кодека : 144

Текст #3
Идентификатор : 4610 (0x1202)
Идентификатор меню : 1 (0x1)
Формат : PGS
Идентификатор кодека : 144

Текст #4
Идентификатор : 4611 (0x1203)
Идентификатор меню : 1 (0x1)
Формат : PGS
Идентификатор кодека : 144

Текст #5
Идентификатор : 4612 (0x1204)
Идентификатор меню : 1 (0x1)
Формат : PGS
Идентификатор кодека : 144

Текст #6
Идентификатор : 4613 (0x1205)
Идентификатор меню : 1 (0x1)
Формат : PGS
Идентификатор кодека : 144

Текст #7
Идентификатор : 4614 (0x1206)
Идентификатор меню : 1 (0x1)
Формат : PGS
Идентификатор кодека : 144

Текст #8
Идентификатор : 4615 (0x1207)
Идентификатор меню : 1 (0x1)
Формат : PGS
Идентификатор кодека : 144

Текст #9
Идентификатор : 4616 (0x1208)
Идентификатор меню : 1 (0x1)
Формат : PGS
Идентификатор кодека : 144

Текст #10
Идентификатор : 4617 (0x1209)
Идентификатор меню : 1 (0x1)
Формат : PGS
Идентификатор кодека : 144

Текст #11
Идентификатор : 4618 (0x120A)
Идентификатор меню : 1 (0x1)
Формат : PGS
Идентификатор кодека : 144

Текст #12
Идентификатор : 4619 (0x120B)
Идентификатор меню : 1 (0x1)
Формат : PGS
Идентификатор кодека : 144

Текст #13
Идентификатор : 4620 (0x120C)
Идентификатор меню : 1 (0x1)
Формат : PGS
Идентификатор кодека : 144

Текст #14
Идентификатор : 4621 (0x120D)
Идентификатор меню : 1 (0x1)
Формат : PGS
Идентификатор кодека : 144

Текст #15
Идентификатор : 4622 (0x120E)
Идентификатор меню : 1 (0x1)
Формат : PGS
Идентификатор кодека : 144

Текст #16
Идентификатор : 4623 (0x120F)
Идентификатор меню : 1 (0x1)
Формат : PGS
Идентификатор кодека : 144

Текст #17
Идентификатор : 4624 (0x1210)
Идентификатор меню : 1 (0x1)
Формат : PGS
Идентификатор кодека : 144

Текст #18
Идентификатор : 4625 (0x1211)
Идентификатор меню : 1 (0x1)
Формат : PGS
Идентификатор кодека : 144


Жажда странствий скачать торрент





Скачать Жажда странствий через торрент http://i47.fastpic.ru/big/2012/1110/2c/a1ad13f96c147b347a430ac1a567a72c.jpg Скачать, смотреть онлайн Жажда странствий бесплантно в хорошем качестве Описание: Герои фильма Линда и Джордж — самые обыкновенные городские жители. И живут они в самом обыкновенном Нью-Йорке. Но что делать, ... 5 10 1
Info! Золотая раздача, скачанное не засчитывается.
Торрент: Зарегистрирован [2012-11-09 22:25] · скачан: 16 раз
Статус: √ проверено
Размер: 40.43 GB
Как cкачать? Как скачать Жажда странствий через торрент | UTorrent

% Раздел Тема Автор DL S | L
Фильмы 2012 [ 700 MB ] Жажда странствий / Страсть к перемене мест / Wanderlust | | HDRip, лицензия SD Скачать
1 | 0
Фильмы [HD 720p, 1080p] (Хороший звук DUB, MVO) [ 6.11 GB ] Страсть к перемене мест/ Жажда странствий / Wanderlust | DUB | 720p, DUB, лицензия Pavlin Скачать
1 | 0
Фильмы 2012 [ 1.46 GB ] Жажда странствий / Wanderlust | DUB | HDRip, DUB, лицензия кэп Скачать
1 | 0
Фильмы (DVD фильмы) [ 6.21 GB ] Жажда странствий / Страсть к перемене мест / Wanderlust | | Жажда странствий / Страсть к перемене мест / Wanderlust (Дэвид Уэйн / David Wain voovaz Скачать
1 | 0

28-11-2019 20:33  


Отключить вcю реклaмy на сайте, в т.ч. и в плеере онлайн просмотра!

10-11-2012 03:02 Жажда странствий Скачать торрент  

фильм какашка, с детьми смотреть не рекомендую где то в середине фильма в открытую показывают .i.



    Дорогой пользователь! Огромная просьба, поблагодарите релизера, оцените раздачу и оставьте свои комментарий, если Вы скачали Жажда странствий через торрент бесплатно!!
    Комментировать посты могут только пользователи прошедшие не сложную регистрацию
    Показать сообщения:    


    Жажда странствий через торрент
    Скачать бесплатно Жажда странствий
    Жажда странствий скачать торрент
    Жажда странствий смотреть онлайн
    Cкачать фильм Жажда странствий бесплатно
    Жажда странствий скачать торрент в хорошем качестве
    Жажда странствий смотреть онлайн бесплатно в хорошем качестве
    Вы не можете начинать темы
    Вы не можете отвечать на сообщения
    Вы не можете редактировать свои сообщения
    Вы не можете удалять свои сообщения
    Вы не можете голосовать в опросах
    Вы не можете прикреплять файлы к сообщениям
    Вы можете скачивать файлы
    Жажда странствий / Wanderlust [2012 г., мелодрама, комедия, Blu-ray, лицензия] смотреть онлайн, скачать торрент picoco.icu