Ссылка на приватное зеркало нашего сайта всего за 1$. Внимание количество ограничено!!!

2 сезон

iTunes

1 сезон

1

iTunes

iTunes

iTunes

1 сезон

RePack

30

ИГРА 18+

pack

ВАЖНО

!!Акция!!

Alien_RageХит недели

RePack

MK11
pack

Забери бонус

RePack

jed

!!Акция!!

Alien_Rage

RePack

fifa19

RePack

Assassins Creed: Odyssey

RePack

NEED FOR SPEED™ PAYBACK

4 сезон

9 сезон

Бесстыжие 9 сезон

Все сериалы

все сериалы на PB.wtf

RePack

FAR CRY 5
  

Хитмэн / Hitman (Ксавьер Генс) [2007 г., боевик, триллер, драма, криминал, BDRip (720p)] DUB + MVO (Киномания) + AVO (Ю. Немахов) + Original + SUB (Rus, Eng) / UNRATED pb.wtf

Хитмэн через торрент pb.wtf

Размер: 8.85 GB | Добавлен: 7 лет 11 мес. назад | Торрент скачан:287 раз
Скачать  

11-11-2012 00:55 Хитмэн Скачать торрент  

Хитмэн / Hitman

Год выпуска: 2007
Страна: Франция, США
Жанр: боевик, триллер, драма, криминал
Продолжительность: 01:34:14
Перевод:
• Профессиональный (полное дублирование) [Blu-ray]
• Профессиональный (многоголосый, закадровый) [Киномания]
• Авторский (одноголосый, закадровый) [Ю. Немахов]

  • Режиссер: Ксавьер Генс
  • Продюссер: Адриан Аскариа, Чарльз Гордон, Пьерр-Анге Ле Погам
  • Сценарий: Скип Вудс


В ролях: Тимоти Олифант, Дагрей Скотт, Ольга Куриленко, Роберт Кнеппер, Ульрих Томсен, Михаэль Оффей

Описание: Хитмэн был обучен, как высоко профессиональный убийца, чье самое мощное оружие — это хладнокровие и безмерная гордость за свою работу. 47 — это две последние цифры на штрих-коде, вытатуированном на его затылке, а также его единственное имя. Но охотник становится добычей, когда 47-й оказывается втянутым в политические интриги. Интерпол и русские военные начинают охоту на киллера по всей восточной Европе, в то время как он сам пытается понять, кто его подставил и почему они пытаются вывести его из игры. Но самую большую угрозу для 47-го представляет волнение его совести и незнакомые эмоции, пробудившиеся в нем после встречи с прекрасной девушкой…

  • Качество: BDRip (720p)
  • Формат: MKV
  • Видео кодек: AVC
  • Аудио кодек: DTS
  • Видео: AVC, 1280x552 (2.35:1), 23.976 fps, 5 120 Kbps (0.287 bit/pixel)
  • Аудио#1: DTS, 48.0 KHz, 6 ch, 755 Kbps, CBR (Russian) DUB BD
  • Аудио#2: DTS, 48.0 KHz, 6 ch, 1 510 Kbps, CBR (Russian) MVO Киномания
  • Аудио#3: DTS HRA / Core, 48.0 KHz, 6 ch, 3 019 Kbps / 1 510 Kbps, CBR (Russian) AVO Немахов
  • Аудио#4: DTS HRA / Core, 48.0 KHz, 6 ch, 3 019 Kbps / 1 510 Kbps, CBR (English) Original
  • Субтитры: Russian, English


Скриншоты

скриншот   скриншот   скриншот   скриншот  


Код:

Общее
Уникальный идентификатор                 : 212847786010339495311497231542086914827 (0xA020FE1257AC60D58A3844E99211D30B)
Полное имя                               : F:PC ShareХитмэн 720p.mkv
Формат                                   : Matroska
Версия формата                           : Version 2
Размер файла                             : 8,85 Гбайт
Продолжительность                        : 1 ч. 34 м.
Общий поток                              : 13,4 Мбит/сек
Название фильма                          : Hitman.2007.Unrated.720p.BluRay.DTS.x264-ESiR
Дата кодирования                         : UTC 2012-06-07 12:27:10
Программа кодирования                    : mkvmerge v4.0.0 ('The Stars were mine') сборка от Jun  6 2010 16:18:42
Библиотека кодирования                   : libebml v1.0.0 + libmatroska v1.0.0
Attachment                               : Yes / Yes / Yes

Видео
Идентификатор                            : 1
Формат                                   : AVC
Формат/Информация                        : Advanced Video Codec
Профиль формата                          : High@L5.1
Параметр CABAC формата                   : Да
Параметр ReFrames формата                : 10 кадров
Идентификатор кодека                     : V_MPEG4/ISO/AVC
Продолжительность                        : 1 ч. 34 м.
Битрейт                                  : 4858 Кбит/сек
Номинальный битрейт                      : 5120 Кбит/сек
Ширина                                   : 1280 пикселей
Высота                                   : 552 пикселя
Соотношение сторон                       : 2,35:1
Режим частоты кадров                     : Постоянный
Частота кадров                           : 23,976 кадра/сек
Цветовое пространство                    : YUV
Субдискретизация насыщенности            : 4:2:0
Битовая глубина                          : 8 бит
Тип развёртки                            : Прогрессивная
Бит/(Пиксели*Кадры)                      : 0.287
Размер потока                            : 3,20 Гбайт (36%)
Заголовок                                : Хитмэн (Расширенная версия) / Hitman (Unrated version) / 2007 / ДБ, ПМ, АП (Немахов) / Blu-Ray Remux (1080p)
Библиотека кодирования                   : x264 core 58 r798M 17e5dac
Настройки программы                      : cabac=1 / ref=10 / deblock=1:-3:-3 / analyse=0x3:0x133 / me=umh / subme=7 / me-prepass=0 / brdo=1 / mixed_ref=1 / me_range=24 / chroma_me=1 / trellis=0 / 8x8dct=1 / cqm=2 / deadzone=6,6 / chroma_qp_offset=0 / threads=6 / nr=0 / decimate=1 / mbaff=0 / bframes=3 / b_pyramid=1 / b_adapt=1 / b_bias=0 / direct=1 / wpredb=1 / bime=1 / keyint=250 / keyint_min=25 / scenecut=40(pre) / rc=2pass / bitrate=5120 / ratetol=1.0 / rceq='blurCplx^(1-qComp)' / qcomp=1.00 / qpmin=10 / qpmax=51 / qpstep=4 / cplxblur=20.0 / qblur=0.5 / ip_ratio=1.40 / pb_ratio=1.30 / aq=1:0.5:15.0
Язык                                     : English
Default                                  : Да
Forced                                   : Нет

Аудио #1
Идентификатор                            : 2
Формат                                   : DTS
Формат/Информация                        : Digital Theater Systems
Режим                                    : 16
Параметр Endianness формата              : Big
Идентификатор кодека                     : A_DTS
Продолжительность                        : 1 ч. 34 м.
Вид битрейта                             : Постоянный
Битрейт                                  : 768 Кбит/сек
Каналы                                   : 6 каналов
Расположение каналов                     : Front: L C R, Side: L R, LFE
Частота                                  : 48,0 КГц
Битовая глубина                          : 24 бит
Метод сжатия                             : С потерями
Размер потока                            : 518 Мбайт (6%)
Заголовок                                : Русский (DTS, 6 ch, 768 Кбит/с) — ДБ
Язык                                     : Russian
Default                                  : Да
Forced                                   : Нет

Аудио #2
Идентификатор                            : 3
Формат                                   : DTS
Формат/Информация                        : Digital Theater Systems
Режим                                    : 16
Параметр Endianness формата              : Big
Идентификатор кодека                     : A_DTS
Продолжительность                        : 1 ч. 34 м.
Вид битрейта                             : Постоянный
Битрейт                                  : 1509 Кбит/сек
Каналы                                   : 6 каналов
Расположение каналов                     : Front: L C R, Side: L R, LFE
Частота                                  : 48,0 КГц
Битовая глубина                          : 24 бит
Метод сжатия                             : С потерями
Размер потока                            : 1017 Мбайт (11%)
Заголовок                                : усский (DTS, 6 ch, 1510 Кбит/с) — ПМ (Киномания)
Язык                                     : Russian
Default                                  : Нет
Forced                                   : Нет

Аудио #3
Идентификатор                            : 4
Формат                                   : DTS
Формат/Информация                        : Digital Theater Systems
Профиль формата                          : HRA / Core
Режим                                    : 16
Параметр Endianness формата              : Big
Идентификатор кодека                     : A_DTS
Продолжительность                        : 1 ч. 34 м.
Вид битрейта                             : Постоянный
Битрейт                                  : 3018 Кбит/сек / 1509 Кбит/сек
Каналы                                   : 6 каналов
Расположение каналов                     : Front: L C R, Side: L R, LFE
Частота                                  : 48,0 КГц
Битовая глубина                          : 24 бит
Метод сжатия                             : С потерями
Размер потока                            : 1,99 Гбайт (22%)
Заголовок                                : Русский (DTS, 6 ch, 1510 Кбит/с) — АП (Немахов)
Язык                                     : Russian
Default                                  : Нет
Forced                                   : Нет

Аудио #4
Идентификатор                            : 5
Формат                                   : DTS
Формат/Информация                        : Digital Theater Systems
Профиль формата                          : HRA / Core
Режим                                    : 16
Параметр Endianness формата              : Big
Идентификатор кодека                     : A_DTS
Продолжительность                        : 1 ч. 34 м.
Вид битрейта                             : Постоянный
Битрейт                                  : 3018 Кбит/сек / 1509 Кбит/сек
Каналы                                   : 6 каналов
Расположение каналов                     : Front: L C R, Side: L R, LFE
Частота                                  : 48,0 КГц
Битовая глубина                          : 24 бит
Метод сжатия                             : С потерями
Размер потока                            : 1,99 Гбайт (22%)
Заголовок                                : Английский (DTS, 6 ch, 1510 Кбит/с)
Язык                                     : English
Default                                  : Нет
Forced                                   : Нет

Текст #1
Идентификатор                            : 6
Формат                                   : UTF-8
Идентификатор кодека                     : S_TEXT/UTF8
Идентификатор кодека/Информация          : UTF-8 Plain Text
Заголовок                                : Субтитры (Форсированные)
Язык                                     : Russian
Default                                  : Нет
Forced                                   : Нет

Текст #2
Идентификатор                            : 7
Формат                                   : UTF-8
Идентификатор кодека                     : S_TEXT/UTF8
Идентификатор кодека/Информация          : UTF-8 Plain Text
Заголовок                                : Субтитры (Полные)
Язык                                     : Russian
Default                                  : Нет
Forced                                   : Нет

Текст #3
Идентификатор                            : 8
Формат                                   : ASS
Идентификатор кодека                     : S_TEXT/ASS
Идентификатор кодека/Информация          : Advanced Sub Station Alpha
Метод сжатия                             : Без потерь
Язык                                     : English
Default                                  : Нет
Forced                                   : Нет

pb.wtf



Скачать Хитмэн через торрент http://pic.kartinco.top/images/1/j2hog7s48n.png Скачать фильм Хитмэн через торрент бесплантно в хорошем качестве Описание: Хитмэн был обучен, как высоко убийца, чье самое мощное оружие — это хладнокровие и безмерная гордость за свою ... 9.4 10 7
Info! Золотая раздача, скачанное не засчитывается.
Торрент: Зарегистрирован [2012-11-11 00:55] · скачан: 287 раз
Статус: √ проверено
Размер: 8.85 GB
Как cкачать? Как скачать Хитмэн через торрент | qTorrent

% Раздел Тема Автор DL S | L
Фильмы 2006-2008 [ 2.05 GB ] Хитмэн / Hitman [2007 BDRip-AVC] 720p Unrated rza_86 Скачать
2 | 0
Фильмы 2006-2008 [ 1.37 GB ] Хитмэн / Hitman [2007 BDRip-AVC-Hi10P] [Unrated] DUB MVO AVO VO Eng Sub serg7628 Скачать
1 | 0

28-11-2019 20:33  

Отключить всю рекламу на сайте

11-11-2012 02:30 Хитмэн Скачать торрент  

классный фильмец!pb.wtf



    Дорогой пользователь! Огромная просьба, поблагодарите релизера, оцените раздачу и оставьте свои комментарий, если Вы скачали Хитмэн через торрент бесплатно! Внесите свою лепту в развитие PiratBit!
    Комментировать посты могут только пользователи прошедшие не сложную регистрацию
    Показать сообщения:    

    Хитмэн через торрент
    Скачать бесплатно Хитмэн
    Хитмэн скачать торрент
    Хитмэн смотреть онлайн
    Cкачать фильм Хитмэн бесплатно
    Хитмэн скачать торрент в хорошем качестве
    Хитмэн смотреть онлайн бесплатно в хорошем качестве


    Вы не можете начинать темы
    Вы не можете отвечать на сообщения
    Вы не можете редактировать свои сообщения
    Вы не можете удалять свои сообщения
    Вы не можете голосовать в опросах
    Вы не можете прикреплять файлы к сообщениям
    Вы можете скачивать файлы