Ссылка на приватное зеркало нашего сайта всего за 1$. Внимание количество ограничено!!!

2 сезон

iTunes

1 сезон

1

2 сезон

2 сезон

iTunes

1 сезон

RePack

30

Новинка

ВАЖНО

ИГРА 18+

pack

RePack

MK11
pack

Забери бонус

RePack

jed

!!Акция!!

Alien_Rage

RePack

fifa19

RePack

Assassins Creed: Odyssey

RePack

NEED FOR SPEED™ PAYBACK

4 сезон

9 сезон

Бесстыжие 9 сезон

Все сериалы

все сериалы на PB.wtf

RePack

FAR CRY 5
  

Лента 407 / Tape 407 (Дэйл Фабригар, Эверетт Воллин) [2012 г., ужасы, фантастика, триллер, BDRip 720p, VO] pb.wtf

Лента 407 через торрент pb.wtf

Размер: 4.49 GB | Добавлен: 8 лет назад | Торрент скачан:307 раз
Скачать  

12-11-2012 04:34 Лента 407 Скачать торрент  

Лента 407 / Tape 407

Год выпуска: 2012
Страна: США
Жанр: ужасы, фантастика, триллер
Продолжительность: 01:29:51
Перевод: Любительский одноголосый

Режиссер: Дэйл Фабригар, Эверетт Воллин
Продюссер: Сюзанн ДеЛорентис, Ivan Kavalsky, Bagyrian Armen
Сценарий: Robert Shepyer, Dale Fabrigar, Everette Wallin

Премьера в мире: 27 апреля 2012

MPAA: RG-13 детям до 13 лет просмотр не желателен
IMDb: 3.60 (1 293)
Кинопоиск: 5.938 32

В ролях: Эбигейл Шрайдер, Саманта Лестер, Джимми Лайонс, Мелани Мунт, Брендан Патрик Коннор, Кеннет Гарсиа, Саманта Слойан, Эверетт Воллин, Джуд Прест, Саванна Уорд

Описание: Выжившие пассажиры самолета, следовавшие рейсом из Нью-Йорка в Лос-Анджелес, потерпевшие авиакатастрофу, попадают в так называемую Зону 407, где под покровительством правительства проводятся различные тайные эксперименты. Героям предстоит столкнуться с результатами одного из таких экспериментов и заснять весь произошедший с ними кровавый ужас на бытовую видеокамеру.

Качество: BDRip 720p
Формат: MKV
Видео кодек: AVC
Аудио кодек: AC3/DTS
Видео: 5456Кбит/сек, 1280х720 (16:9,) AVC, 25,000 кадров/сек
Аудио#1: Русский, AC3 2.0, 192 kbps, 48 kHz
Аудио#2: Английский, DTS 5.1, 1510 kbps, 48 kHz
Релиз от: сторонний ресурс










Общее
Уникальный идентификатор : 235984534623258304941857703259299411404 (0xB188F7D99DF3F8FC96C0EE5EEFD075CC)
Полное имя : D:torrentTape.407.2012.720p.BDRip.сторонний ресурс.mkv
Формат : Matroska
Версия формата : Version 2
Размер файла : 4,49 Гбайт
Продолжительность : 1 ч. 29 м.
Общий поток : 7161 Кбит/сек
Дата кодирования : UTC 2012-11-11 10:17:09
Программа кодирования : mkvmerge v5.2.0 ('I can't explain') built on Dec 18 2011 18:12:03
Библиотека кодирования : libebml v1.2.3 + libmatroska v1.3.0

Видео
Идентификатор : 1
Формат : AVC
Формат/Информация : Advanced Video Codec
Профиль формата : High@L3.1
Параметр CABAC формата : Да
Параметр ReFrames формата : 5 кадров
Идентификатор кодека : V_MPEG4/ISO/AVC
Продолжительность : 1 ч. 29 м.
Битрейт : 5456 Кбит/сек
Ширина : 1280 пикселей
Высота : 720 пикселей
Соотношение сторон : 16:9
Режим частоты кадров : Постоянный
Частота кадров : 25,000 кадров/сек
Цветовое пространство : YUV
Субдискретизация насыщенности : 4:2:0
Битовая глубина : 8 бит
Тип развёртки : Прогрессивная
Бит/(Пиксели*Кадры) : 0.237
Размер потока : 3,34 Гбайт (74%)
Библиотека кодирования : x264 core 125 r2200 999b753
Настройки программы : cabac=1 / ref=5 / deblock=1:0:0 / analyse=0x3:0x133 / me=umh / subme=7 / psy=1 / psy_rd=1.00:0.00 / mixed_ref=1 / me_range=16 / chroma_me=1 / trellis=1 / 8x8dct=1 / cqm=0 / deadzone=21,11 / fast_pskip=0 / chroma_qp_offset=-2 / threads=6 / lookahead_threads=1 / sliced_threads=0 / nr=0 / decimate=1 / interlaced=0 / bluray_compat=0 / constrained_intra=0 / bframes=3 / b_pyramid=2 / b_adapt=2 / b_bias=0 / direct=3 / weightb=1 / open_gop=0 / weightp=2 / keyint=250 / keyint_min=25 / scenecut=40 / intra_refresh=0 / rc_lookahead=50 / rc=2pass / mbtree=1 / bitrate=5456 / ratetol=1.0 / qcomp=0.60 / qpmin=0 / qpmax=69 / qpstep=4 / cplxblur=20.0 / qblur=0.5 / ip_ratio=1.40 / aq=1:1.00
Язык : English
Default : Да
Forced : Нет

Аудио #1
Идентификатор : 2
Формат : AC-3
Формат/Информация : Audio Coding 3
Расширение режима : CM (complete main)
Параметр Endianness формата : Big
Идентификатор кодека : A_AC3
Продолжительность : 1 ч. 29 м.
Вид битрейта : Постоянный
Битрейт : 192 Кбит/сек
Каналы : 2 канала
Расположение каналов : Front: L R
Частота : 48,0 КГц
Битовая глубина : 16 бит
Метод сжатия : С потерями
Размер потока : 123 Мбайт (3%)
Заголовок : VO den904
Язык : Russian
Default : Да
Forced : Нет

Аудио #2
Идентификатор : 3
Формат : DTS
Формат/Информация : Digital Theater Systems
Идентификатор кодека : A_DTS
Продолжительность : 1 ч. 29 м.
Вид битрейта : Постоянный
Битрейт : 1510 Кбит/сек
Каналы : 6 каналов
Расположение каналов : Front: L C R, Side: L R, LFE
Частота : 48,0 КГц
Битовая глубина : 24 бит
Метод сжатия : С потерями
Размер потока : 970 Мбайт (21%)
Язык : English
Default : Нет
Forced : Нет

Текст
Идентификатор : 4
Формат : UTF-8
Идентификатор кодека : S_TEXT/UTF8
Идентификатор кодека/Информация : UTF-8 Plain Text
Язык : English
Default : Нет
Forced : Нет

pb.wtf



Скачать Лента 407 через торрент http://pic.kartinco.top/images/1/rectvitfao.jpg Скачать фильм Лента 407 через торрент бесплантно в хорошем качестве Описание: Выжившие пассажиры самолета, следовавшие рейсом из Нью-Йорка в Лос-Анджелес, потерпевшие авиакатастрофу, попадают в так ... 10 10 1
Info! Золотая раздача, скачанное не засчитывается.
Торрент: Зарегистрирован [2012-11-12 04:34] · скачан: 307 раз
Статус: √ проверено
Размер: 4.49 GB
Как cкачать? Как скачать Лента 407 через торрент | qTorrent

28-11-2019 20:33  

Отключить всю рекламу на сайте

12-11-2012 06:23 Лента 407 Скачать торрент  

оооо даааа, детка! еще тот трэш!pb.wtf



12-11-2012 08:36 Лента 407 Скачать торрент  

и летящий надувной динозавр на скрине! мало того что задолбали на видеокамеру снимать фильмы !pb.wtf



12-11-2012 08:54 Лента 407 Скачать торрент  

У них явный талант делать постеры к фильмам, а вот сами фильмы...pb.wtf



12-11-2012 10:08 Лента 407 Скачать торрент  

Liis писал(а):

и летящий надувной динозавр на скрине!

Это же Миша, тот самый олимпийский Миша. Я всегда верил что он долетит и принесет мир, дружбу и счастье спортивных соревнований в зону 407!pb.wtf



23-12-2012 14:44 Лента 407 Скачать торрент  

Такая параша, особо прикалывает когда людей кровью облили из одной бочки, переборщили с кровью! Фильм не очём ! ПОЛНАЯ ПАРАША!!!pb.wtf



24-12-2012 17:14 Лента 407 Скачать торрент  

Параша мягко сказано и кто такое убогое говно снимает! :doubledown: :doubledown: :doubledown: pb.wtf



    Дорогой пользователь! Огромная просьба, поблагодарите релизера, оцените раздачу и оставьте свои комментарий, если Вы скачали Лента 407 через торрент бесплатно! Внесите свою лепту в развитие PiratBit!
    Комментировать посты могут только пользователи прошедшие не сложную регистрацию
    Показать сообщения:    

    Лента 407 через торрент
    Скачать бесплатно Лента 407
    Лента 407 скачать торрент
    Лента 407 смотреть онлайн
    Cкачать фильм Лента 407 бесплатно
    Лента 407 скачать торрент в хорошем качестве
    Лента 407 смотреть онлайн бесплатно в хорошем качестве


    Вы не можете начинать темы
    Вы не можете отвечать на сообщения
    Вы не можете редактировать свои сообщения
    Вы не можете удалять свои сообщения
    Вы не можете голосовать в опросах
    Вы не можете прикреплять файлы к сообщениям
    Вы можете скачивать файлы