Ссылка на приватное зеркало нашего сайта всего за 1$. Внимание количество ограничено!!!

2 сезон

iTunes

1 сезон

1

iTunes

iTunes

iTunes

1 сезон

RePack

30

ИГРА 18+

pack

ВАЖНО

!!Акция!!

Alien_RageХит недели

RePack

MK11
pack

Забери бонус

RePack

jed

!!Акция!!

Alien_Rage

RePack

fifa19

RePack

Assassins Creed: Odyssey

RePack

NEED FOR SPEED™ PAYBACK

4 сезон

9 сезон

Бесстыжие 9 сезон

Все сериалы

все сериалы на PB.wtf

RePack

FAR CRY 5
  

Вишневый переулок / Cherry Tree Lane (Пол Эндрю Уильямс) [2010 г., триллер, криминал, HDRip, DVO] pb.wtf

Вишневый переулок через торрент pb.wtf

Размер: 1.43 GB | Добавлен: 7 лет 11 мес. назад | Торрент скачан:38 раз
Скачать  

12-11-2012 08:31 Вишневый переулок Скачать торрент  

Вишневый переулок / Cherry Tree Lane

Год выпуска: 2010
Страна: Великобритания
Жанр: триллер, криминал
Продолжительность: 01:14:17
Перевод: Любительский двухголосый

Режиссер: Пол Эндрю Уильямс
Продюссер: Кен Маршалл, Рейчел Даргавел, Марк Фолиньо
Сценарий: Пол Эндрю Уильямс

Премьера в мире: 21 июня 2010

IMDb: 5.10 (1 398)
Кинопоиск: 4.929 190

В ролях: Рэйчел Блейк, Дженни Жак, Кельвин Гилмор, Том Батчер, Сонни Муслим, Джумэйн Хантер, Эшли Чин, Корина Дуглас, Kieran Dooner

Описание: Cамая обычная семейная пара среднего класса, которые живут в небольшом доме. Фильм начинается с того момента, когда они приготовили ужин, открыли бутылку вина и дожидаются своего сына Себастьяна, который с минуты на минуту должен прийти с футбольного матча. Звонок в дверь, Кристин не глядя открывает дверь, в которую вламывается банда отмороженных незнакомцев. Похоже, что Себастьян обокрал одного из парней и теперь они здесь, чтобы отомстить ему и его родителям, они верят, что всё делают правильно, отстаивая свои моральные принципы. Ребята устраиваются и ждут Себастьяна, и скрашивают часы ожидания, издеваясь и унижая заложников.

Качество: HDRip
Формат: AVI
Видео кодек: XviD
Аудио кодек: AC3
Видео: 720x304 (2.37:1), 25 fps, XviD build 65 ~2315 kbps avg, 0.42 bit/pixel
Аудио#1: 48 kHz, AC3 Dolby Digital, 3/2 (L,C,R,l,r) + LFE ch, ~448.00 kbps avg









Общее
Полное имя : D:torrentVishnyovij_pereulok_2010_HDRip.сторонний ресурс.avi
Формат : AVI
Формат/Информация : Audio Video Interleave
Размер файла : 1,43 Гбайт
Продолжительность : 1 ч. 14 м.
Общий поток : 2753 Кбит/сек
Программа кодирования : VirtualDubMod 1.5.10.3 | www.virtualdub-fr.org || (build 2550/release)
Библиотека кодирования : VirtualDubMod build 2550/release

Видео
Идентификатор : 0
Формат : MPEG-4 Visual
Профиль формата : Advanced Simple@L5
Параметр BVOP формата : 1
Параметр QPel формата : Нет
Параметр GMC формата : Без точки перехода
Параметр матрицы формата : Выборочная
Идентификатор кодека : XVID
Идентификатор кодека/Подсказка : XviD
Продолжительность : 1 ч. 14 м.
Битрейт : 2315 Кбит/сек
Ширина : 720 пикселей
Высота : 304 пикселя
Соотношение сторон : 2,35:1
Частота кадров : 25,000 кадров/сек
Цветовое пространство : YUV
Субдискретизация насыщенности : 4:2:0
Битовая глубина : 8 бит
Тип развёртки : Прогрессивная
Метод сжатия : С потерями
Бит/(Пиксели*Кадры) : 0.423
Размер потока : 1,20 Гбайт (84%)
Библиотека кодирования : XviD 65

Аудио
Идентификатор : 1
Формат : AC-3
Формат/Информация : Audio Coding 3
Расширение режима : CM (complete main)
Параметр Endianness формата : Big
Идентификатор кодека : 2000
Продолжительность : 1 ч. 11 м.
Вид битрейта : Постоянный
Битрейт : 448 Кбит/сек
Каналы : 6 каналов
Расположение каналов : Front: L C R, Side: L R, LFE
Частота : 48,0 КГц
Битовая глубина : 16 бит
Метод сжатия : С потерями
Размер потока : 228 Мбайт (16%)
Выравнивание : Разделение по промежуткам
Продолжительность промежутка : 42 мс. (1,05 видеокадр)
Время предзагрузки промежутка : 500 мс.

pb.wtf



Скачать Вишневый переулок через торрент http://pic.kartinco.top/images/1/gkhaanhwze.png Скачать фильм Вишневый переулок через торрент бесплантно в хорошем качестве Описание: Cамая обычная семейная пара среднего класса, которые живут в небольшом доме. Фильм начинается с того момента, когда они ... 5 10 1
Info! Золотая раздача, скачанное не засчитывается.
Торрент: Зарегистрирован [2012-11-12 08:31] · скачан: 38 раз
Статус: T временная
Размер: 1.43 GB
Как cкачать? Как скачать Вишневый переулок через торрент | qTorrent

28-11-2019 20:33  

Отключить всю рекламу на сайте

    Дорогой пользователь! Огромная просьба, поблагодарите релизера, оцените раздачу и оставьте свои комментарий, если Вы скачали Вишневый переулок через торрент бесплатно! Внесите свою лепту в развитие PiratBit!
    Комментировать посты могут только пользователи прошедшие не сложную регистрацию
    Показать сообщения:    

    Вишневый переулок через торрент
    Скачать бесплатно Вишневый переулок
    Вишневый переулок скачать торрент
    Вишневый переулок смотреть онлайн
    Cкачать фильм Вишневый переулок бесплатно
    Вишневый переулок скачать торрент в хорошем качестве
    Вишневый переулок смотреть онлайн бесплатно в хорошем качестве


    Вы не можете начинать темы
    Вы не можете отвечать на сообщения
    Вы не можете редактировать свои сообщения
    Вы не можете удалять свои сообщения
    Вы не можете голосовать в опросах
    Вы не можете прикреплять файлы к сообщениям
    Вы можете скачивать файлы