Мега распродажа FORZA HORIZON 4 ULTIMATE+ВСЕ DLC+ОНЛАЙН всего за 499р. 349 руб. (супер цена). Внимание количество ограничено!!!

Лицензия

30

iTunes

мы

iTunes

1

1 сезон

Чернобыль

1 сезон

Ральф против интернета

MVO

Покемон. Детектив Пикачу

8 сезон

Игра престолов

iTunes

1+1

ИГРА 18+

pack

ВАЖНО

!!Акция!!

Alien_RageХит недели

RePack

Resident Evil 21
pack

RePack

Metro:Exodus

!!Акция!!

Alien_Rage

RePack

fifa19

RePack

Assassins Creed: Odyssey

RePack

NEED FOR SPEED™ PAYBACK

3 сезон

9 сезон

Бесстыжие 9 сезон

Все сериалы

все сериалы на PB.wtf

RePack

FAR CRY 5
Ребята, катастрофически не хватает 2730р. для оплаты серверов за МАЙ (всвязи с блокировками трафик упал в 3 раза), 1-2р., выручайте.
  

Черная топь / Legend of the Bog (Брендан Фоли) [2009 г., ужасы, триллер, DVDRip, MVO] pb.wtf

Черная топь через торрент pb.wtf

Размер: 1.45 GB | Добавлен: 6 лет 7 мес. назад | Торрент скачан:110 раз
Скачать  

13-11-2012 19:11 Черная топь Скачать торрент  

Черная топь / Legend of the Bog

Год выпуска: 2009
Страна: Ирландия
Жанр: ужасы, триллер
Продолжительность: 01:31:43
Перевод: Профессиональный многоголосый
Субтитры: Отсутствуют

Режиссер: Брендан Фоли
Продюссер: Питер Дж. Баррелл, Джо Кондрен, Брендан Фоли
Сценарий: Брендан Фоли, Джон Шеридан, Джо Кондрен

Мировой рейтинг IMDB 3.60 (812)


В ролях: Винни Джонс, Джейсон Бэрри, Нора-Джейн Нун, Адам Фогерти, Эми Хубермэн, Шелли Голдштейн, Gavin Kelty, Ольга Верли, Майкл Коллинз, Пол Валентайн

Описание: Копаясь в недрах Ирландии группа археологов наткнулись на тело мертвеца, пролежавшее в земле более 2000 лет, при этом оно отлично сохранилось. Археологи решили передать его в институт для исследования. Но, вскоре они начинают понимать, что оно наделено сверхъестественными способностями, потому что подает все признаки жизни. А через некоторое время, это мертвец выходит на охоту. Теперь, главные герои пытаются любым возможным способом вернуть тело обратно в торфяник...

Качество: DVDRip
Формат: AVI
Видео кодек: XviD
Аудио кодек: AC3
Видео: 720x400 (1.80:1), 25 fps, XviD build 50 ~1874 kbps avg, 0.26 bit/pixel
Аудио#1: Русский: 48 kHz, AC3 Dolby Digital, 3/2 (L,C,R,l,r) + LFE ch, ~384 kbps
Общее
Полное имя : F:ЗакачкиChernaya.Topj.2009.DVDRip.avi
Формат : AVI
Формат/Информация : Audio Video Interleave
Размер файла : 1,45 Гбайт
Продолжительность : 1 ч. 31 м.
Общий поток : 2268 Кбит/сек
Программа кодирования : VirtualDubMod 1.5.10.3 | www.virtualdub-fr.org || (build 2550/release)
Библиотека кодирования : VirtualDubMod build 2550/release

Видео
Идентификатор : 0
Формат : MPEG-4 Visual
Профиль формата : Advanced Simple@L5
Параметр BVOP формата : 1
Параметр QPel формата : Нет
Параметр GMC формата : Без точки перехода
Параметр матрицы формата : Default (H.263)
Идентификатор кодека : XVID
Идентификатор кодека/Подсказка : XviD
Продолжительность : 1 ч. 31 м.
Битрейт : 1874 Кбит/сек
Ширина : 720 пикселей
Высота : 400 пикселей
Соотношение сторон : 16:9
Частота кадров : 25,000 кадров/сек
Цветовое пространство : YUV
Субдискретизация насыщенности : 4:2:0
Битовая глубина : 8 бит
Тип развёртки : Прогрессивная
Метод сжатия : С потерями
Бит/(Пиксели*Кадры) : 0.260
Размер потока : 1,20 Гбайт (83%)
Библиотека кодирования : XviD 1.2.1 (UTC 2008-12-04)

Аудио
Идентификатор : 1
Формат : AC-3
Формат/Информация : Audio Coding 3
Расширение режима : CM (complete main)
Параметр Endianness формата : Big
Идентификатор кодека : 2000
Продолжительность : 1 ч. 31 м.
Вид битрейта : Постоянный
Битрейт : 384 Кбит/сек
Каналы : 6 каналов
Расположение каналов : Front: L C R, Side: L R, LFE
Частота : 48,0 КГц
Битовая глубина : 16 бит
Метод сжатия : С потерями
Размер потока : 252 Мбайт (17%)
Выравнивание : Разделение по промежуткам
Продолжительность промежутка : 40 мс. (1,00 видеокадр)
Время предзагрузки промежутка : 500 мс.


Черная топь скачать торрент


pb.wtf



Скачать Черная топь через торрент http://i48.fastpic.ru/big/2012/1113/f4/85fdf8f73a425ab8df02d9041d35a8f4.jpg Скачать фильм Черная топь через торрент бесплантно в хорошем качестве Описание: Копаясь в недрах Ирландии группа археологов наткнулись на тело мертвеца, пролежавшее в земле более 2000 лет, при этом оно отлично ... 9 10 1
Info! Золотая раздача, скачанное не засчитывается.
Торрент: Зарегистрирован [2012-11-13 19:11] · скачан: 110 раз
Статус: √ проверено
Размер: 1.45 GB
Как cкачать? Как скачать Черная топь через торрент | qTorrent


>> Регистрируемся здесь <<






Отзывы и комментарии о схеме читаем и пишем здесь: ---> Отзывы и комментарии о схеме

Новые благодарочки в телеграм довольных пользователей:
скриншот   скриншот   скриншот   скриншот   скриншот

13-11-2012 19:49 Черная топь Скачать торрент  

ууууууууууууууууууууу трэшак то какой)pb.wtf



14-11-2012 02:06 Черная топь Скачать торрент  

Fedotman писал(а):

ууууууууууууууууууууу трэшак то какой)

Бга-га :good2:pb.wtf



    Дорогой пользователь! Огромная просьба, поблагодарите релизера, оцените раздачу и оставьте свои комментарий, если Вы скачали Черная топь через торрент бесплатно! Внесите свою лепту в развитие PiratBit!
    Комментировать посты могут только пользователи прошедшие не сложную регистрацию
    Показать сообщения:    

    Черная топь через торрент
    Скачать бесплатно Черная топь
    Черная топь скачать торрент
    Черная топь смотреть онлайн
    Cкачать фильм Черная топь бесплатно
    Черная топь скачать торрент в хорошем качестве
    Черная топь смотреть онлайн бесплатно в хорошем качестве


    Вы не можете начинать темы
    Вы не можете отвечать на сообщения
    Вы не можете редактировать свои сообщения
    Вы не можете удалять свои сообщения
    Вы не можете голосовать в опросах
    Вы не можете прикреплять файлы к сообщениям
    Вы можете скачивать файлы