2 сезон

iTunes

MVO

1

2 сезон

iTunes

iTunes

1 сезон

RePack

30

Новинка

ВАЖНО

ИГРА 18+

pack

RePack

MK11
pack

Легкие деньги

RePack

jed

RePack

fifa19

RePack

RDR2

RePack

NEED FOR SPEED™ PAYBACK

4 сезон

9 сезон

Бесстыжие 9 сезон

Все сериалы

все сериалы на PB.wtf

RePack

FAR CRY 5

Anonymous, доброй ночи, мы не успеваем собрать деньги на оплату серверов за декабрь и январь, помогите нам пожалуйста в это трудное время. В качестве благодарности мы отключим Вам всю рекламу на сайте (укажите свой ник в строку Ваше имя)!

×
  
Magnet ссылка

Сибиряк (Игорь Москвитин) [2011 г., криминал, DVDRip, лицензия] pb.wtf

Сибиряк через торрент pb.wtf

Размер: 1.44 GB | Добавлен: 8 лет 2 мес. назад | Торрент скачан:155 раз
Скачать  

15-11-2012 08:42 Сибиряк Скачать торрент  

Сибиряк

Год выпуска: 2011
Страна: Россия
Жанр: криминал
Продолжительность: 01:30:55
Перевод: Оригинал
Тип релиза: Лицензия

Режиссер: Игорь Москвитин
Продюссер: Сергей Щеглов, Инесса Юрченко
Сценарий: Антон Зинченко



В ролях: Егор Пазенко, Константин Соловьев, Анна Азарова, Екатерина Проскурина, Роман Жилкин, Алексей Федотов, Евгений Филатов, Геннадий Алимпиев, Артем Алексеев, Анатолий Рудаков, Татьяна Бедова, Екатерина Унтилова, Александр Иванов

Описание: Несколько лет назад Молотов погрузил все необходимые вещи в багажник своей машины и приехал в Питер из далекого, заснеженного Усть-Илимска. В общем, начал новую жизнь. Молотов вместе с новым приятелем Шуваловым организовали строительную фирму. Сначала был один дом, который они вдвоем и строили. Затем два. Дальше четыре. Сейчас Молотов и Артем учредители крупной строительной копании. У них работают несколько бригад. Компания не ограничивается постройками дачных деревяшек, участвует в городских тендерах. Дела идут в гору.
С сибирских времен у Молотова сохранилась одна страсть — охота. Вместе с ним к охоте пристрастился и Шувалов. На этот раз партнеры уехали далеко, больше чем за тысячу километров. Охота обещала быть опасной. И Шувалов планировал вернуться назад в Питер уже один. Только он забыл, что Молотов — настоящий сибиряк.

Качество: DVDRip
Формат: AVI
Видео кодек: XviD
Аудио кодек: AC3
Видео: 640x352 (1.82:1), 25 fps, XviD build 50 ~1816 kbps avg, 0.32 bit/pixel
Аудио#1: 48 kHz, AC3 Dolby Digital, 3/2 (L,C,R,l,r) + LFE ch, ~448 kbps


General
Complete name : H:кино 2sibirjak.2011.dvdrip.ac3.uniongang.tv.avi
Format : AVI
Format/Info : Audio Video Interleave
File size : 1.44 GiB
Duration : 1h 30mn
Overall bit rate : 2 275 Kbps
Movie name : sibirjak.2011.dvdrip.ac3.uniongang.tv
Director : riperrr
Writing application : VirtualDubMod 1.5.10.3 | www.virtualdub-fr.org || (build 2550/release)
Copyright

Video
ID : 0
Format : MPEG-4 Visual
Format profile : Advanced Simple@L5
Format settings, BVOP : 1
Format settings, QPel : No
Format settings, GMC : No warppoints
Format settings, Matrix : Custom
Codec ID : XVID
Codec ID/Hint : XviD
Duration : 1h 30mn
Bit rate : 1 817 Kbps
Width : 640 pixels
Height : 352 pixels
Display aspect ratio : 16:9
Frame rate : 25.000 fps
Color space : YUV
Chroma subsampling : 4:2:0
Bit depth : 8 bits
Scan type : Progressive
Compression mode : Lossy
Bits/(Pixel*Frame) : 0.323
Stream size : 1.15 GiB (80%)
Writing library : XviD 1.2.1 (UTC 2008-12-04)

Audio
ID : 1
Format : AC-3
Format/Info : Audio Coding 3
Mode extension : CM (complete main)
Codec ID : 2000
Duration : 1h 30mn
Bit rate mode : Constant
Bit rate : 448 Kbps
Channel(s) : 6 channels
Channel positions : Front: L C R, Side: L R, LFE
Sampling rate : 48.0 KHz
Bit depth : 16 bits
Compression mode : Lossy
Stream size : 291 MiB (20%)
Alignment : Split accross interleaves
Interleave, duration : 40 ms (1.00 video frame)
Interleave, preload duration : 500 ms

pb.wtf



Скачать Сибиряк через торрент http://pic.kartinco.top/images/1/u2ns8z9x7r.png Скачать фильм Сибиряк через торрент бесплантно в хорошем качестве Описание: Несколько лет назад Молотов погрузил все необходимые вещи в багажник своей машины и приехал в Питер из далекого, заснеженного ... 10 10 2
Info! Золотая раздача, скачанное не засчитывается.
Торрент: Зарегистрирован [2012-11-15 08:42] · скачан: 155 раз
Статус: √ проверено
Размер: 1.44 GB
Как cкачать? Как скачать Сибиряк через торрент | UTorrent

% Раздел Тема Автор DL S | L
Наши фильмы (DVD фильмы) [ 3.98 GB ] Сибиряк [2011 DVD5] R5 voovaz Скачать
1 | 0
Наши фильмы 2010-2011 [ 1.28 GB ] Сибиряк [2011 SATRip] -=Cherry=- Скачать
1 | 0

28-11-2019 20:33  

Отключить всю рекламу на сайте

    Дорогой пользователь! Огромная просьба, поблагодарите релизера, оцените раздачу и оставьте свои комментарий, если Вы скачали Сибиряк через торрент бесплатно! Внесите свою лепту в развитие PiratBit!
    Комментировать посты могут только пользователи прошедшие не сложную регистрацию
    Показать сообщения:    

    Сибиряк через торрент
    Скачать бесплатно Сибиряк
    Сибиряк скачать торрент
    Сибиряк смотреть онлайн
    Cкачать фильм Сибиряк бесплатно
    Сибиряк скачать торрент в хорошем качестве
    Сибиряк смотреть онлайн бесплатно в хорошем качестве


    Вы не можете начинать темы
    Вы не можете отвечать на сообщения
    Вы не можете редактировать свои сообщения
    Вы не можете удалять свои сообщения
    Вы не можете голосовать в опросах
    Вы не можете прикреплять файлы к сообщениям
    Вы можете скачивать файлы