Ссылка на приватное зеркало нашего сайта всего за 1$. Внимание количество ограничено!!!

2 сезон

iTunes

1 сезон

1

2 сезон

2 сезон

iTunes

1 сезон

RePack

30

Ultimate

ВАЖНО

ИГРА 18+

pack

RePack

MK11
pack

Забери бонус

RePack

jed

!!Акция!!

Alien_Rage

RePack

fifa19

RePack

Assassins Creed: Odyssey

RePack

NEED FOR SPEED™ PAYBACK

4 сезон

9 сезон

Бесстыжие 9 сезон

Все сериалы

все сериалы на PB.wtf

RePack

FAR CRY 5
  

Титаник: Кровь и сталь / Titanic: Blood and Steel / 1 сезон / серии 1-4 (12) ( Киаран Доннелли) [2012 г., Драма, История, BDrip, MVO, BaibaKo.tv ] pb.wtf

Титаник: Кровь и сталь через торрент pb.wtf

Размер: 2.88 GB | Добавлен: 7 лет 11 мес. назад | Торрент скачан:9 раз
Скачать  

16-11-2012 13:15 Титаник: Кровь и сталь Скачать торрент  

Титаник: Кровь и сталь / Titanic: Blood and Steel Год выпуска: 2012
Страна: .Ирландия, Италия, Франция, Канада, Великобритания, Испания,
Жанр:Драма, история
Продолжительность: 00:54:15
Перевод: Профессиональный многоголосый.
Режиссер:Киаран Доннелли
В ролях: Кевин Зегерс, Алессандра Мастронарди, Нив Кэмпбелл, Джекоби, Билли Картер, Массимо Гини, Валентина Корти, Герард МакКарти, Йен МакЭлхинни, Мартин МакКанн, Джонатан Форбс, Фрэнк Маккаскер, Офелия Ловибонд, Шарлотта Брэдли, Бэрри МакЭвой, Каолан Бирн, Брануэлл Донахи, Грэй О’Брайэн, Эдоардо Лео, Стефен Ганн, Томми О’нилл, Лиам Каннингэм, Майкл МакЭлхаттон, Элинор Метвин, Ив Маклин, Карл Шейлз, Кейт О’Тул, Джеймс Флинн, Пауль Хервиг, Лайам МакМахон, Крис Нот, Лайам Карни, Гэвин О’Коннор, Оуэн Шарп, Денис Гоф, Терри Бирн, Джонатан Харден
Описание:
Главные действующие лица сериала - создатели лайнера, заранее прозванного "непотопляемым". Они вынуждены работать в атмосфере политического и финансового давления. Это и владелец компании Harland & Wolff, со стапелей которой и сошел обреченный «четырехтрубник», и финансист Джей Пи Морган, и множество простых и не очень простых рабочих. Тему первого плавания «Титаника» взялась освещать привлекательная журналистка, у которой есть свои причины оказаться на борту.

Качество: BDRip
Формат: AVI
Видео кодек: Xvid
Аудио кодек: MP3
Видео: 720x400 (1.80:1), 23.976 fps, XviD build 50 ~1499 kbps avg, 0.22 bit/pixel

Аудио#1:48 kHz, MPEG Layer 3, 2 ch, ~192.00 kbps avg

Аудио#2: 48 kHz, MPEG Layer 3, 2 ch, ~192.00 kbps avg(Английский - оригинал)


Формат : AVI
Формат/Информация : Audio Video Interleave
Размер файла : 787 Мбайт
Продолжительность : 57 м.
Общий поток : 1898 Кбит/сек
Программа кодирования : VirtualDubMod 1.5.10.2 (build 2540/release)
Библиотека кодирования : VirtualDubMod build 2540/release

Видео
Идентификатор : 0
Формат : MPEG-4 Visual
Профиль формата : Advanced Simple@L5
Параметр BVOP формата : 2
Параметр QPel формата : Нет
Параметр GMC формата : Без точки перехода
Параметр матрицы формата : Default (H.263)
Идентификатор кодека : XVID
Идентификатор кодека/Подсказка : XviD
Продолжительность : 57 м.
Битрейт : 1500 Кбит/сек
Ширина : 720 пикселей
Высота : 400 пикселей
Соотношение сторон : 16:9
Частота кадров : 23,976 кадра/сек
Цветовое пространство : YUV
Субдискретизация насыщенности : 4:2:0
Битовая глубина : 8 бит
Тип развёртки : Прогрессивная
Метод сжатия : С потерями
Бит/(Пиксели*Кадры) : 0.217
Размер потока : 622 Мбайт (79%)
Библиотека кодирования : XviD 1.2.1 (UTC 2008-12-04)

Аудио #1
Идентификатор : 1
Формат : MPEG Audio
Версия формата : Version 1
Профиль формата : Layer 3
Режим : Joint stereo
Идентификатор кодека : 55
Идентификатор кодека/Подсказка : MP3
Продолжительность : 57 м.
Вид битрейта : Постоянный
Битрейт : 192 Кбит/сек
Каналы : 2 канала
Частота : 48,0 КГц
Метод сжатия : С потерями
Размер потока : 79,6 Мбайт (10%)
Выравнивание : Соединение по промежуткам
Продолжительность промежутка : 42 мс. (1,00 видеокадр)
Время предзагрузки промежутка : 504 мс.
Библиотека кодирования : LAME3.99r
Настройки программы : -m j -V 4 -q 2 -lowpass 18.6 -b 192

Аудио #2
Идентификатор : 2
Формат : MPEG Audio
Версия формата : Version 1
Профиль формата : Layer 3
Режим : Joint stereo
Расширение режима : MS Stereo
Идентификатор кодека : 55
Идентификатор кодека/Подсказка : MP3
Продолжительность : 57 м.
Вид битрейта : Постоянный
Битрейт : 192 Кбит/сек
Каналы : 2 канала
Частота : 48,0 КГц
Метод сжатия : С потерями
Размер потока : 79,6 Мбайт (10%)
Выравнивание : Соединение по промежуткам
Продолжительность промежутка : 42 мс. (1,00 видеокадр)
Время предзагрузки промежутка : 504 мс.
Библиотека кодирования : LAME3.99r
Настройки программы : -m j -V 4 -q 2 -lowpass 18.6 -b 192
Внимание! Раздача ведётся путём добавления новых серий; при каждом добавлении создётся новый торрент. Чтобы начать докачку новой серии, пользователям необходимо сделать следующее:
(1) остановить скачивание,
(2) удалить старый торрент у себя из клиента (старые серии удалять не надо),
(3) скачать новый торрент и запустить его у себя в клиенте вместо старого, при этом указать клиенту путь в старую папку куда и должно происходить скачивание новых серий.

Ваш клиент при этом должен произвести хеширование (проверку) старой папки (если не производит сам - помогите ему сделать это), и будет докачивать только те серии которых у вас ещё нет. Старые серии при этом не удаляются, а продолжают раздаваться!

Eсли вы уже удалили старые серии, то предотвратить повторную закачку старых серий можно, отжав галочку в соответсвующих местах при запуске нового торрента. По возможности, желательно не удалять старые серии как можно дольше чтобы релизёр не столько продолжал раздавать старые серии, а смог сконцентрироваться на новых.
скриншот   скриншот   скриншот   скриншот   скриншот   скриншот  
pb.wtf



Скачать Титаник: Кровь и сталь через торрент http://img.zoneland.ru/images00/8ce48578d5c87473608e924eb1e0cff3.png.jpg Скачать фильм Титаник: Кровь и сталь через торрент бесплантно в хорошем качестве Описание:Главные действующие лица сериала - создатели лайнера, заранее прозванного "непотопляемым". Они вынуждены работать в атмосфере ... 5 10 1
Info! Золотая раздача, скачанное не засчитывается.
Торрент: Зарегистрирован [2012-12-22 12:28] · скачан: 9 раз
Статус: √ проверено
Размер: 2.88 GB
Как cкачать? Как скачать Титаник: Кровь и сталь через торрент | qTorrent



Последний раз редактировалось: akcent (2012-12-22 12:28), всего редактировалось 11 раз(а)

28-11-2019 20:33  

Отключить всю рекламу на сайте

16-11-2012 15:30 Титаник: Кровь и сталь Скачать торрент  

Отпишитесь кто скачал,как сериал?стоит качать?pb.wtf



16-11-2012 20:59 Титаник: Кровь и сталь Скачать торрент  

Похоже чем-нибудь на Спартака, кроме названия?pb.wtf



17-11-2012 20:13 Титаник: Кровь и сталь Скачать торрент  

На ходячих больше похоже)pb.wtf



18-11-2012 14:42 Титаник: Кровь и сталь Скачать торрент  

Добавлена 2 -я серияpb.wtf



24-11-2012 09:18 Титаник: Кровь и сталь Скачать торрент  

Фильм нормальный, жаль переведены только 2 серии, на английском полностью в on-line есть.pb.wtf



03-12-2012 10:29 Титаник: Кровь и сталь Скачать торрент  

Добавлена 3 -я серияpb.wtf



22-12-2012 12:28 Титаник: Кровь и сталь Скачать торрент  

Добавлена 4 -я серияpb.wtf



    Дорогой пользователь! Огромная просьба, поблагодарите релизера, оцените раздачу и оставьте свои комментарий, если Вы скачали Титаник: Кровь и сталь через торрент бесплатно! Внесите свою лепту в развитие PiratBit!
    Комментировать посты могут только пользователи прошедшие не сложную регистрацию
    Показать сообщения:    

    Титаник: Кровь и сталь через торрент
    Скачать бесплатно Титаник: Кровь и сталь
    Титаник: Кровь и сталь скачать торрент
    Титаник: Кровь и сталь смотреть онлайн
    Cкачать фильм Титаник: Кровь и сталь бесплатно
    Титаник: Кровь и сталь скачать торрент в хорошем качестве
    Титаник: Кровь и сталь смотреть онлайн бесплатно в хорошем качестве


    Вы не можете начинать темы
    Вы не можете отвечать на сообщения
    Вы не можете редактировать свои сообщения
    Вы не можете удалять свои сообщения
    Вы не можете голосовать в опросах
    Вы не можете прикреплять файлы к сообщениям
    Вы можете скачивать файлы