1 сезон

3 сезон

iTunes

1

Line

MVO

iTunes

13

1 сезон

RePack

30

Deluxe

pack

Лицензия

ВАЖНО

ИГРА 18+

pack

RePack

MK11

RePack

jed

RePack

fifa19

RePack

RDR2

RePack

NEED FOR SPEED™ PAYBACK

4 сезон

9 сезон

Бесстыжие 9 сезон

Все сериалы

все сериалы на PB.wtf

RePack

FAR CRY 5

Anonymous, доброе утро, мы катастрофически не успеваем собрать деньги на оплату серверов, помогите нам пожалуйста 5,10,15р., для нас важна любая помощь . В качестве благодарности мы отключим Вам всю рекламу на сайте (укажите свой ник в строку Ваше имя)!

×
  
Magnet ссылка

Патруль / End of Watch (Дэвид Эйер) [2012 г., триллер, драма, криминал, DVD9, Дубляж, лицензия] pb.wtf

Патруль через торрент pb.wtf

Размер: 6.9 GB | Добавлен: 8 лет 8 мес. назад | Торрент скачан:175 раз
Скачать  

19-11-2012 18:13 Патруль Скачать торрент  

Патруль / End of Watch

Год выпуска: 2012
Страна: США
Жанр: триллер, драма, криминал
Продолжительность: 01:44:09
Перевод: Профессиональный (полное дублирование) [Лицензия]

  • Режиссер: Дэвид Эйер
  • Продюссер: Дэвид Эйр, Мэтт Джексон, Джон Лешер
  • Сценарий: Дэвид Эйр


В ролях: Джейк Джилленхол, Майкл Пенья, Анна Кендрик, Натали Мартинез, Америка Феррера, Фрэнк Грилло, Дэвид Харбор, Кле Шахид Слоун, Джейм Фицсаймонс, Коуди Хорн

Описание: Они были лучшими копами Лос-Анджелеса. Бесстрашные и везучие напарники, они стали друг другу как братья. Но однажды парни залезли в самое логово преступного мира города, по-глупому подставились и сами стали мишенью… Кто успеет первым разрядить обойму?

  • Качество: DVD9
  • Формат: DVD Video
  • Видео кодек: MPEG2
  • Аудио кодек: AC3
  • Видео: MPEG 2, 720x576 (16:9), 25.000 fps, 6 000 Kbps (0.627 bit/pixel)
  • Аудио#1: AC-3, 48.0 KHz, 6 ch, 384 Kbps, CBR (Русский)
  • Аудио#2: AC-3, 48.0 KHz, 2 ch, 192 Kbps, CBR (Русский)
  • Аудио#3: AC-3, 48.0 KHz, 6 ch, 384 Kbps, CBR (Английский)
  • Субтитры: Русские
  • Дополнительно: На съёмочной площадке; Смотрите на DVD


Скриншоты меню

скриншот   скриншот   скриншот   скриншот  


Скриншоты

скриншот   скриншот   скриншот   скриншот  


Код:

Title: Patrul.2012.D.DVD.IRONCLUB
Size: 6.90 Gb ( 7 235 556,00 KBytes ) - DVD-9
Enabled regions: 1, 2, 3, 4, 5, 6, 7, 8

VTS_01 :
  Play Length: 00:00:01+01:44:09+00:00:01
  Video: PAL 16:9 (720x576) VBR, Auto Letterboxed
  Audio:
      Russian (Dolby AC3, 6 ch)
      Russian (Dolby AC3, 2 ch)
      English (Dolby AC3, 6 ch)
  Subtitles:
      Russian

VTS_02 :
  Play Length: 00:00:01+00:00:15+00:00:01
  Video: PAL 16:9 (720x576) VBR, Auto Letterboxed
  Audio:
      Russian (Dolby AC3, 2 ch)

VTS_03 :
  Play Length: 00:00:01+00:00:17+00:00:01
  Video: PAL 16:9 (720x576) VBR, Auto Letterboxed
  Audio:
      Russian (Dolby AC3, 2 ch)

VTS_04 :
  Play Length: 00:00:01+00:13:56+00:00:01
  Video: PAL 16:9 (720x576) VBR, Auto Letterboxed
  Audio:
      Not specified (Dolby AC3, 2 ch)

VTS_05 :
  Play Length: 00:00:01+00:13:17+00:00:01
  Video: PAL 16:9 (720x576) VBR, Auto Letterboxed
  Audio:
      Russian (Dolby AC3, 2 ch)

* Menus Information *

VIDEO_TS Menu
Video:
      NTSC 4:3 (720x480) VBR
      Auto Pan&Scan, Auto Letterboxed
Russian Language Unit :
      Title Menu

VTS_01 Menu
Video:
      PAL 16:9 (720x576) VBR
      Auto Letterboxed
Audio:
      Not specified (Dolby AC3, 2 ch)
Russian Language Unit :
      Root Menu

VTS_02 Menu
Video:
      NTSC 4:3 (720x480) VBR
      Auto Pan&Scan, Auto Letterboxed
Language Unit :
      Angle menu
Language Unit :
      Subpicture Menu
      Angle menu
Language Unit :
      Subpicture Menu
      Angle menu

VTS_03 Menu
Video:
      NTSC 4:3 (720x480) VBR
      Auto Pan&Scan, Auto Letterboxed
Language Unit :
      Angle menu
Language Unit :
      Chapter (PTT) Menu
Language Unit :
      Chapter (PTT) Menu

VTS_04 Menu
Video:
      NTSC 4:3 (720x480) VBR
      Auto Pan&Scan, Auto Letterboxed
Russian Language Unit :
      Root Menu

VTS_05 Menu
Video:
      NTSC 4:3 (720x480) VBR
      Auto Pan&Scan, Auto Letterboxed
Russian Language Unit :
      Root Menu


Код:

Общее
Полное имя                               : D:TorrentsPatrul.2012.D.DVD.IRONCLUBVIDEO_TSVTS_01_1.VOB
Формат                                   : MPEG-PS
Размер файла                             : 1024 Мбайт
Продолжительность                        : 18 м.
Режим общего битрейта                    : Переменный
Общий поток                              : 7608 Кбит/сек

Видео
Идентификатор                            : 224 (0xE0)
Формат                                   : MPEG Video
Версия формата                           : Version 2
Профиль формата                          : Main@Main
Параметр BVOP формата                    : Да
Параметр матрицы формата                 : По умолчанию
Параметр GOP формата                     : Variable
Продолжительность                        : 18 м.
Вид битрейта                             : Переменный
Битрейт                                  : 6497 Кбит/сек
Ширина                                   : 720 пикселей
Высота                                   : 576 пикселей
Соотношение сторон                       : 16:9
Частота кадров                           : 25,000 кадров/сек
Стандарт вещания                         : PAL
Цветовое пространство                    : YUV
Субдискретизация насыщенности            : 4:2:0
Битовая глубина                          : 8 бит
Тип развёртки                            : Чересстрочная
Метод сжатия                             : С потерями
Бит/(Пиксели*Кадры)                      : 0.627
Размер потока                            : 874 Мбайт (85%)

Аудио #1
Идентификатор                            : 189 (0xBD)-128 (0x80)
Формат                                   : AC-3
Формат/Информация                        : Audio Coding 3
Расширение режима                        : CM (complete main)
Параметр Endianness формата              : Big
Режим смешивания                         : DVD-Video
Продолжительность                        : 18 м.
Вид битрейта                             : Постоянный
Битрейт                                  : 384 Кбит/сек
Каналы                                   : 6 каналов
Расположение каналов                     : Front: L C R, Side: L R, LFE
Частота                                  : 48,0 КГц
Битовая глубина                          : 16 бит
Метод сжатия                             : С потерями
Размер потока                            : 51,7 Мбайт (5%)

Аудио #2
Идентификатор                            : 189 (0xBD)-129 (0x81)
Формат                                   : AC-3
Формат/Информация                        : Audio Coding 3
Расширение режима                        : CM (complete main)
Параметр Endianness формата              : Big
Режим смешивания                         : DVD-Video
Продолжительность                        : 18 м.
Вид битрейта                             : Постоянный
Битрейт                                  : 192 Кбит/сек
Каналы                                   : 2 канала
Расположение каналов                     : Front: L R
Частота                                  : 48,0 КГц
Битовая глубина                          : 16 бит
Метод сжатия                             : С потерями
Размер потока                            : 25,8 Мбайт (3%)

Аудио #3
Идентификатор                            : 189 (0xBD)-130 (0x82)
Формат                                   : AC-3
Формат/Информация                        : Audio Coding 3
Расширение режима                        : CM (complete main)
Параметр Endianness формата              : Big
Режим смешивания                         : DVD-Video
Продолжительность                        : 18 м.
Вид битрейта                             : Постоянный
Битрейт                                  : 384 Кбит/сек
Каналы                                   : 6 каналов
Расположение каналов                     : Front: L C R, Side: L R, LFE
Частота                                  : 48,0 КГц
Битовая глубина                          : 16 бит
Метод сжатия                             : С потерями
Размер потока                            : 51,7 Мбайт (5%)

Текст
Идентификатор                            : 189 (0xBD)-32 (0x20)
Формат                                   : RLE
Формат/Информация                        : Run-length encoding
Режим смешивания                         : DVD-Video
Продолжительность                        : 18 м.

Меню

pb.wtf



Скачать Патруль через торрент https://pic1.kartinco.top/images/111/h4rv7pruvi.png Скачать фильм Патруль через торрент бесплантно в хорошем качестве Описание: Они были лучшими копами Лос-Анджелеса. Бесстрашные и везучие напарники, они стали друг другу как братья. Но однажды парни залезли ... 5 10 1
Info! Золотая раздача, скачанное не засчитывается.
Торрент: Зарегистрирован [2012-11-19 18:13] · скачан: 175 раз
Статус: √ проверено
Размер: 6.9 GB
Как cкачать? Как скачать Патруль через торрент | UTorrent

% Раздел Тема Автор DL S | L
Фильмы 2012 [ 1.76 GB ] Патруль / End of Watch [2012 HDRip by Dean24] Dean24 Скачать
1 | 0
Фильмы 2012 [ 1.46 GB ] Патруль / End of Watch [2012 BDRip] [] killermax2013 Скачать
1 | 0
Фильмы 2012 [ 1.45 GB ] Патруль / End of Watch [2012 HDRip-AVC] Dub sokol_ok Скачать
2 | 0
Фильмы [HD 720p, 1080p] (Хороший звук DUB, MVO) [ 6.99 GB ] Патруль / End of Watch [2012 BDRip 720p лицензия] Ke$h@ Скачать
1 | 0
Фильмы 2012 [ 1.37 GB ] Патруль / End of Watch [2012 HDRip DUB лицензия] gnev78 Скачать
1 | 0
Фильмы [HD 720p, 1080p] (Хороший звук DUB, MVO) [ 5.67 GB ] Патруль / End of Watch [2012 / BDRip [720p] DUB (лицензия] akcent Скачать
1 | 0
Фильмы 2012 [ 2.18 GB ] Патруль / End of Watch [2012 BDRip-AVC] DUB + Original + Sub potroks Скачать
1 | 0

28-11-2019 20:33  

Отключить всю рекламу на сайте

20-11-2012 08:59 Патруль Скачать торрент  

как фильм кто знает?pb.wtf



21-11-2012 17:10 Патруль Скачать торрент  

zeleniigena писал(а):

как фильм кто знает?

Фильм будет двоякий,для разного рода людей.Кому то покажется лажей,кому то явно затягивающим из середины и до конца.Фильм,как для "америкосов" не стандартный и снят на 5+,жирное имхо!pb.wtf



22-11-2012 07:06 Патруль Скачать торрент  

Фильм отличный. Посмотрел на одном дыхании. Раздающему спасибо.pb.wtf



    Дорогой пользователь! Огромная просьба, поблагодарите релизера, оцените раздачу и оставьте свои комментарий, если Вы скачали Патруль через торрент бесплатно! Внесите свою лепту в развитие PiratBit!
    Комментировать посты могут только пользователи прошедшие не сложную регистрацию
    Показать сообщения:    

    Патруль через торрент
    Скачать бесплатно Патруль
    Патруль скачать торрент
    Патруль смотреть онлайн
    Cкачать фильм Патруль бесплатно
    Патруль скачать торрент в хорошем качестве
    Патруль смотреть онлайн бесплатно в хорошем качестве


    Вы не можете начинать темы
    Вы не можете отвечать на сообщения
    Вы не можете редактировать свои сообщения
    Вы не можете удалять свои сообщения
    Вы не можете голосовать в опросах
    Вы не можете прикреплять файлы к сообщениям
    Вы можете скачивать файлы