2 сезон

iTunes

1 сезон

1

iTunes

iTunes

iTunes

1 сезон

RePack

30

ИГРА 18+

pack

ВАЖНО

!!Акция!!

Alien_RageХит недели

RePack

MK11
pack

Забери бонус

RePack

jed

!!Акция!!

Alien_Rage

RePack

fifa19

RePack

Assassins Creed: Odyssey

RePack

NEED FOR SPEED™ PAYBACK

4 сезон

9 сезон

Бесстыжие 9 сезон

Все сериалы

все сериалы на PB.wtf

RePack

FAR CRY 5
  

Новые парни нитро / New Kids Nitro (Steffen Haars, Флип Ван Дер Куил) [2011 г., боевик, комедия, BDRip 720p, VO] pb.wtf

Новые парни нитро через торрент pb.wtf

Размер: 3.68 GB | Добавлен: 7 лет 11 мес. назад | Торрент скачан:95 раз
Скачать  

19-11-2012 21:26 Новые парни нитро Скачать торрент  

Новые парни нитро / New Kids Nitro

Год выпуска: 2011
Страна: Нидерланды
Жанр: боевик, комедия
Продолжительность: 01:17:29
Перевод: Любительский одноголосый

Режиссер: Steffen Haars, Флип Ван Дер Куил
Продюссер: Ганс Де Веерс, Рейну Урлеманс, Эрвин Годшалк
Сценарий: Steffen Haars, Флип Ван Дер Куил

Мировой рейтинг IMDB 6.00 (3 062)


В ролях: Хуб Смит, Tim Haars, Wesley van Gaalen, Steffen Haars, Флип Ван Дер Куил, Питер Эртз, Lars Boekhorst, Filip Bolluyt, Барт Де Рийк, Maureen Eerdmans

Описание: Продолжение нам всеми известных Новых Парней TURBO. В Новых Парнях NITRO будет ещё больше приключений: нашествие зомби, стычка с ребятами с соседнего городка, гонки на тачках, ещё больше выстрелов из огнестрельного и многое другое

Качество: BDRip 720p
Формат: MKV
Видео кодек: AVC
Аудио кодек: AC3
Видео: MPEG-4 AVC, 5801 Кбит/с, 1280x536, 23.976 fps
Аудио#1: Русский (AC3, 2 ch, 224 Кбит/с), голландский (AC3, 6 ch, 640 Кбит/с)







Общее

Полное имя : Novye parni nitro.2011.L1.BDRip.720p.mkv
Формат : Matroska
Версия формата : Version 2
Размер файла : 3,68 Гбайт
Продолжительность : 1 ч. 17 м.
Общий поток : 6800 Кбит/сек
Название фильма : Novye parni nitro.2011.L1.BDRip.720p.tv
Дата кодирования : UTC 2012-04-29 16:54:42
Программа кодирования : mkvmerge v5.5.0 ('Healer') built on Apr 6 2012 21:43:24
Библиотека кодирования : libebml v1.2.3 + libmatroska v1.3.0

Видео
Идентификатор : 1
Формат : AVC
Формат/Информация : Advanced Video Codec
Профиль формата : High@L4.1
Параметр CABAC формата : Да
Параметр ReFrames формата : 12 кадров
Идентификатор кодека : V_MPEG4/ISO/AVC
Продолжительность : 1 ч. 17 м.
Битрейт : 5801 Кбит/сек
Ширина : 1280 пикс.
Высота : 536 пикс.
Соотношение сторон : 2,40:1
Частота кадров : 23,976 кадр/сек
Цветовое пространство : YUV
Подвыборка цветности : 4:2:0
Битовая глубина : 8 бит
Тип развёртки : Прогрессивная
Бит/(Пиксели*Кадры) : 0.353
Размер потока : 3,14 Гбайт (85%)
Заголовок : Novye parni nitro.2011.L1.BDRip.720p.Uniongang.tv
Библиотека кодирования : x264 core 122 r2184 5c85e0a
Настройки программы : cabac=1 / ref=12 / deblock=1:-3:-3 / analyse=0x3:0x113 / me=tesa / subme=11 / psy=1 / psy_rd=0.90:0.00 / mixed_ref=1 / me_range=16 / chroma_me=1 / trellis=2 / 8x8dct=1 / cqm=0 / deadzone=21,11 / fast_pskip=0 / chroma_qp_offset=-2 / threads=12 / sliced_threads=0 / nr=0 / decimate=0 / interlaced=0 / bluray_compat=0 / constrained_intra=0 / bframes=8 / b_pyramid=2 / b_adapt=2 / b_bias=0 / direct=3 / weightb=1 / open_gop=0 / weightp=2 / keyint=250 / keyint_min=23 / scenecut=40 / intra_refresh=0 / rc=crf / mbtree=0 / crf=16.7 / qcomp=0.60 / qpmin=0 / qpmax=69 / qpstep=4 / ip_ratio=1.40 / pb_ratio=1.30 / aq=1:0.75
Язык : Dutch
Коэффициенты матрицы : BT.709-5, BT.1361, IEC 61966-2-4 709, SMPTE RP177

Аудио #1
Идентификатор : 2
Формат : AC-3
Формат/Информация : Audio Coding 3
Профиль формата : Dolby Digital
Расширение режима : CM (complete main)
Идентификатор кодека : A_AC3
Продолжительность : 1 ч. 17 м.
Вид битрейта : Постоянный
Битрейт : 224 Кбит/сек
Каналы : 2 канала
Расположение каналов : Front: L R
Частота : 48,0 КГц
Битовая глубина : 16 бит
Метод сжатия : С потерями
Размер потока : 124 Мбайт (3%)
Язык : Russian

Аудио #2
Идентификатор : 3
Формат : AC-3
Формат/Информация : Audio Coding 3
Расширение режима : CM (complete main)
Идентификатор кодека : A_AC3
Продолжительность : 1 ч. 17 м.
Вид битрейта : Постоянный
Битрейт : 640 Кбит/сек
Каналы : 6 каналов
Расположение каналов : Front: L C R, Side: L R, LFE
Частота : 48,0 КГц
Битовая глубина : 16 бит
Метод сжатия : С потерями
Размер потока : 355 Мбайт (9%)
Язык : Dutch

Текст #1
Идентификатор : 4
Формат : UTF-8
Идентификатор кодека : S_TEXT/UTF8
Идентификатор кодека/Информация : UTF-8 Plain Text
Язык : English

Текст #2
Идентификатор : 5
Формат : UTF-8
Идентификатор кодека : S_TEXT/UTF8
Идентификатор кодека/Информация : UTF-8 Plain Text
Язык : Dutch


Новые парни нитро скачать торрент


pb.wtf



Скачать Новые парни нитро через торрент http://pic.kartinco.top/images/1/7d1xqzokc4.jpg Скачать фильм Новые парни нитро через торрент бесплантно в хорошем качестве Описание: Продолжение нам всеми известных Новых Парней TURBO. В Новых Парнях NITRO будет ещё больше приключений: нашествие зомби, стычка с ... 10 10 1
Info! Золотая раздача, скачанное не засчитывается.
Торрент: Зарегистрирован [2012-11-19 21:26] · скачан: 95 раз
Статус: T временная
Размер: 3.68 GB
Как cкачать? Как скачать Новые парни нитро через торрент | qTorrent

% Раздел Тема Автор DL S | L
T Фильмы 2011 [ 1.46 GB ] Новые парни нитро / New Kids Nitro [2011 DVDRip VO] VintMosina Скачать
1 | 0

28-11-2019 20:33  

Отключить всю рекламу на сайте

20-11-2012 09:09 Новые парни нитро Скачать торрент  

ктонить посмотрел уже? как фильм?pb.wtf



20-11-2012 10:33 Новые парни нитро Скачать торрент  

полное на подобе тупых американо комедийpb.wtf



20-11-2012 12:52 Новые парни нитро Скачать торрент  

да фильм тупой! но посмеяться можно от души) pb.wtf



20-11-2012 14:59 Новые парни нитро Скачать торрент  

бред и полная парашаpb.wtf



  мат, выдал Drakosha
    Дорогой пользователь! Огромная просьба, поблагодарите релизера, оцените раздачу и оставьте свои комментарий, если Вы скачали Новые парни нитро через торрент бесплатно! Внесите свою лепту в развитие PiratBit!
    Комментировать посты могут только пользователи прошедшие не сложную регистрацию
    Показать сообщения:    

    Новые парни нитро через торрент
    Скачать бесплатно Новые парни нитро
    Новые парни нитро скачать торрент
    Новые парни нитро смотреть онлайн
    Cкачать фильм Новые парни нитро бесплатно
    Новые парни нитро скачать торрент в хорошем качестве
    Новые парни нитро смотреть онлайн бесплатно в хорошем качестве


    Вы не можете начинать темы
    Вы не можете отвечать на сообщения
    Вы не можете редактировать свои сообщения
    Вы не можете удалять свои сообщения
    Вы не можете голосовать в опросах
    Вы не можете прикреплять файлы к сообщениям
    Вы можете скачивать файлы