Ссылка на приватное зеркало нашего сайта всего за 1$. Внимание количество ограничено!!!

2 сезон

iTunes

1 сезон

1

2 сезон

2 сезон

iTunes

1 сезон

RePack

30

Ultimate

ВАЖНО

ИГРА 18+

pack

RePack

MK11
pack

Забери бонус

RePack

jed

!!Акция!!

Alien_Rage

RePack

fifa19

RePack

Assassins Creed: Odyssey

RePack

NEED FOR SPEED™ PAYBACK

4 сезон

9 сезон

Бесстыжие 9 сезон

Все сериалы

все сериалы на PB.wtf

RePack

FAR CRY 5
  

Мрачные тени / Dark Shadows (Тим Бёртон) [2012 г., фэнтези, мелодрама, комедия, BD-Remux, Дубляж лицензия] pb.wtf

Мрачные тени через торрент pb.wtf

Размер: 21.46 GB | Добавлен: 8 лет 2 мес. назад | Торрент скачан:189 раз
Скачать  

05-09-2012 18:57 Мрачные тени Скачать торрент  

Мрачные тени / Dark Shadows

Год выпуска: 2012
Страна: США
Жанр: фэнтези, мелодрама, комедия
Продолжительность: 01:58:06
Перевод: Профессиональный (полное дублирование)
Язык субтитров: русский, английский (PGS)
Вид субтитров: Вшитые (отключаемые)
Режиссер: Тим Бёртон
В ролях: Джонни Депп, Мишель Пфайффер, Хелена Бонем Картер, Ева Грин, Джеки Эрл Хейли, Джонни Ли Миллер, Белла Хиткот, Хлоя Грейс Морец, Гулливер МакГрат
Описание: Владелец поместья Коллинвуд, Барнабас Коллинз, богат, властен и слывет неисправимым Казановой, пока не совершает роковую ошибку, разбив сердце Анжелики Бошар. Будучи ведьмой в буквальном смысле этого слова, она обрекает его на судьбу, худшую, чем сама смерть — обращает его в вампира и хоронит заживо. Два века спустя Барнабаса случайно освобождают из склепа, и тот оказывается в очень изменившемся мире 1972 года. Он возвращается в Коллинвуд и находит в руинах это некогда величественное здание. Жалкие потомки его семьи сохранились лишь немногим лучше родового гнезда, и у каждого из них есть свои «скелеты в шкафу».
Качество: BD-Remux
Формат: MKV
Видео кодек: MPEG4 AVC/H.264
Аудио кодек: AC3, DTS
Видео: 1920x1080, 22.6 Mbps, 23.976 fps
Аудио#1: Русский | AC3, 6ch (Front: L C R, Side: L R, LFE), 448 kbps, 48.0 kHz - | Дубляж |
Аудио#2: Украинский | AC3, 6ch (Front: L C R, Side: L R, LFE), 448 kbps, 48.0 kHz - | Дубляж |
Аудио#3: Английский | DTS-HD MA 5.1 / 48 kHz / 2267 kbps / 16-bit (DTS Core: 5.1 / 48 kHz / 1509 kbps / 16-bit)

Отчет MediaInfo
Код:
General

Complete name : \Dark Shadows.BDRemux.mkv
Format : Matroska
Format version : Version 2
File size : 21.5 GiB
Duration : 1h 58mn
Overall bit rate mode : Variable
Overall bit rate : 26.0 Mbps
Movie name : Dark Shadows.BDRemux -=VB=-
Encoded date : UTC 2012-09-04 07:55:47
Writing application : mkvmerge v3.4.0 ('Rapunzel') сборка от May 15 2010 09:38:20
Writing library : libebml v0.8.0 + libmatroska v0.9.0

Video
ID : 1
Format : AVC
Format/Info : Advanced Video Codec
Format profile : High@L4.1
Format settings, CABAC : Yes
Format settings, ReFrames : 2 frames
Codec ID : V_MPEG4/ISO/AVC
Duration : 1h 58mn
Bit rate mode : Variable
Bit rate : 22.6 Mbps
Width : 1 920 pixels
Height : 1 080 pixels
Display aspect ratio : 16:9
Frame rate : 23.976 fps
Color space : YUV
Chroma subsampling : 4:2:0
Bit depth : 8 bits
Scan type : Progressive
Bits/(Pixel*Frame) : 0.454
Stream size : 18.6 GiB (87%)
Language : English
Default : No
Forced : No

Audio #1
ID : 2
Format : AC-3
Format/Info : Audio Coding 3
Mode extension : CM (complete main)
Format settings, Endianness : Big
Codec ID : A_AC3
Duration : 1h 58mn
Bit rate mode : Constant
Bit rate : 448 Kbps
Channel(s) : 6 channels
Channel positions : Front: L C R, Side: L R, LFE
Sampling rate : 48.0 KHz
Bit depth : 16 bits
Compression mode : Lossy
Stream size : 378 MiB (2%)
Title : DVO
Language : Russian
Default : No
Forced : No

Audio #2
ID : 3
Format : AC-3
Format/Info : Audio Coding 3
Mode extension : CM (complete main)
Format settings, Endianness : Big
Codec ID : A_AC3
Duration : 1h 58mn
Bit rate mode : Constant
Bit rate : 448 Kbps
Channel(s) : 6 channels
Channel positions : Front: L C R, Side: L R, LFE
Sampling rate : 48.0 KHz
Bit depth : 16 bits
Compression mode : Lossy
Stream size : 378 MiB (2%)
Title : DVO
Language : Ukrainian
Default : No
Forced : No

Audio #3
ID : 4
Format : DTS
Format/Info : Digital Theater Systems
Format profile : MA / Core
Codec ID : A_DTS
Duration : 1h 58mn
Bit rate mode : Variable
Bit rate : 2 038 Kbps / 1 510 Kbps
Channel(s) : 6 channels
Channel positions : Front: L C R, Side: L R, LFE
Sampling rate : 48.0 KHz
Bit depth : 16 bits
Compression mode : Lossless / Lossy
Title : DTS-HD MA /5.1 / 48 kHz / 2267 kbps / 16-bit (DTS Core: 5.1 / 48 kHz / 1509 kbps / 16-bit)
Language : English
Default : No
Forced : No

Text #1
ID : 5
Format : PGS
Codec ID : S_HDMV/PGS
Codec ID/Info : The same subtitle format used on BDs/HD-DVDs
Title : Ru
Language : Russian
Default : No
Forced : No

Text #2
ID : 6
Format : PGS
Codec ID : S_HDMV/PGS
Codec ID/Info : The same subtitle format used on BDs/HD-DVDs
Title : En
Language : English
Default : No
Forced : No

Menu
00:00:00.000 : en:Chapter 00
00:12:25.202 : en:Chapter 01
00:19:57.779 : en:Chapter 02
00:30:21.486 : en:Chapter 03
00:38:55.041 : en:Chapter 04
00:49:48.235 : en:Chapter 05
01:00:11.065 : en:Chapter 06
01:09:47.391 : en:Chapter 07
01:19:36.772 : en:Chapter 08
01:29:05.340 : en:Chapter 09
01:39:36.887 : en:Chapter 10
01:48:26.041 : en:Chapter 11
pb.wtf



Скачать Мрачные тени через торрент http://i43.fastpic.ru/big/2012/0904/56/42775ac2492192edef6a58957fd7e056.jpg Скачать фильм Мрачные тени через торрент бесплантно в хорошем качестве Описание: Владелец поместья Коллинвуд, Барнабас Коллинз, богат, властен и слывет неисправимым Казановой, пока не совершает роковую ошибку, ... 10 10 3
Info! Золотая раздача, скачанное не засчитывается.
Торрент: Зарегистрирован [2012-09-05 18:57] · скачан: 189 раз
Статус: √ проверено
Размер: 21.46 GB
Как cкачать? Как скачать Мрачные тени через торрент | qTorrent

% Раздел Тема Автор DL S | L
Фильмы [HD 720p, 1080p] (Хороший звук DUB, MVO) [ 5.85 GB ] Мрачные тени / Dark Shadows [2012 BDRip 720p DUB + Оригинал+Ukr] AlexKa Скачать
1 | 0
Фильмы 2012 [ 2.06 GB ] Мрачные тени / Dark Shadows [2012 HDRip лицензия] akcent Скачать
1 | 0
Фильмы (Blu-ray, BD-Remux, HDDVD) [ 31.63 GB ] Мрачные тени / Dark Shadows [2012 Blu-ray DUB лицензия] Ke$h@ Скачать
1 | 0
Фильмы (DVD фильмы) [ 4.9 GB ] Мрачные тени / Dark Shadows [2012 DVD9] / EUR voovaz Скачать
1 | 0
Фильмы 2012 [ 755 MB ] Мрачные тени / Dark Shadows [2012 HDRip лицензия] SD Скачать
1 | 0

28-11-2019 20:33  

Отключить всю рекламу на сайте

05-09-2012 20:02 Мрачные тени Скачать торрент  

Бёртон?Снос мозга гарантирован.забираю.Спасип!pb.wtf



11-01-2014 15:46 Мрачные тени Скачать торрент  

БРАТИШ ты тока не уходи с раздачи! перекачиваем еще где то 5часиков 1 на 1)) 1 раздает 1 качает.pb.wtf



12-01-2014 19:01 Мрачные тени Скачать торрент  

flatro1 писал(а):

БРАТИШ ты тока не уходи с раздачи! перекачиваем еще где то 5часиков 1 на 1)) 1 раздает 1 качает.

о подкрепление поспело ))) 3раздают)pb.wtf



13-01-2014 20:24 Мрачные тени Скачать торрент  

Еще 2 % Давай те мужики чуть осталось))pb.wtf



13-01-2014 21:00 Мрачные тени Скачать торрент  

flatro1 писал(а):

Еще 2 % Давай те мужики чуть осталось))

чет тормазнулось на 98% 3pb.wtf



13-01-2014 21:26 Мрачные тени Скачать торрент  

АУ ПОчему ТАК? Ответиpb.wtf



18-03-2014 09:08 Мрачные тени Скачать торрент  

от души! ребзя спасибо!pb.wtf



    Дорогой пользователь! Огромная просьба, поблагодарите релизера, оцените раздачу и оставьте свои комментарий, если Вы скачали Мрачные тени через торрент бесплатно! Внесите свою лепту в развитие PiratBit!
    Комментировать посты могут только пользователи прошедшие не сложную регистрацию
    Показать сообщения:    

    Мрачные тени через торрент
    Скачать бесплатно Мрачные тени
    Мрачные тени скачать торрент
    Мрачные тени смотреть онлайн
    Cкачать фильм Мрачные тени бесплатно
    Мрачные тени скачать торрент в хорошем качестве
    Мрачные тени смотреть онлайн бесплатно в хорошем качестве


    Вы не можете начинать темы
    Вы не можете отвечать на сообщения
    Вы не можете редактировать свои сообщения
    Вы не можете удалять свои сообщения
    Вы не можете голосовать в опросах
    Вы не можете прикреплять файлы к сообщениям
    Вы можете скачивать файлы