Всегда рабочее зеркало без VPN и Proxy просто перед .vidak.icu напиши любое слово или цифру, Пример http://z7k3.vidak.icu

MVO

2 сезон

2 сезон

1

1 сезон

iTunes

2 сезон

13

1 сезон

Распродажа

pack

Рекомендуем

Пиратка

30

ВАЖНО

RePack

MK11

RePack

jed

RePack

fifa19

RePack

RDR2

RePack

NEED FOR SPEED™ PAYBACK

Кинопоиск HD

6 сезон

 Острые козырьки 6 сезон

Все сериалы

все сериалы на PB.wtf

RePack

FAR CRY 5

Anonymous, нам критически не хватает 5601 руб. на оплату серверов и переферии за Апрель, помоги нам пожалуйста, вся надежда только на тебя. В благодарность мы отключим тебе всю рекламу на сайте!

×
  
Magnet ссылка

Боже, Благослови Америку / God Bless America (Bobcat Goldthwait / Боб Голдтуэйт) [2011, триллер, чёрная комедия, криминал, HDRip-AVC] MVO + DVO + VO + Original Eng pb.wtf

Боже, Благослови Америку через торрент pb.wtf

Раздают: 2 [ 0 KB/s ]
Размер: 2.18 GB | Добавлен: 9 лет 6 мес. назад | Торрент скачан:373 раза
Смотреть онлайн Боже, Благослови Америку | Скачать    Ребята, помогите собрать деньги на оплату серверов!!!

20-11-2012 17:49 Боже, Благослови Америку Скачать торрент  

Боже, Благослови Америку / God Bless America
«Прирожденные убийцы американской мечты»
Страна: США
Жанр: триллер, чёрная комедия, криминал
Год выпуска: 2011
Продолжительность: 01:44:22

Перевод:
  • Профессиональный (многоголосый закадровый) - R5
  • Профессиональный (двухголосый закадровый) - OzzTV
  • Одноголосый закадровый - А. Киреев по переводу Дмитрия Goblin'a Пучкова
Cубтитры: Russian [Лепра, Юрий Гришин, KingFisheR], English [Full, SDH]
Оригинальная аудиодорожка: английский

Режиссер: Bobcat Goldthwait / Боб Голдтуэйт

В ролях: Джоэль Мюррей, Тара Барр, Маккензи Брук Смит, Мелинда Пейдж Хэмилтон, Рич МакДональд, Андреа Харпер, Дэвид Менденхолл, Джулиана Акоста

Описание: Фрэнк просто выдохся: сосед-невежа, постоянный плач ребенка, глупая болтовня коллег, и в довершение всего — ещё и опухоль мозга. Достав пистолет, уставший от жизни герой находит для себя неожиданного друга и союзника по имени Рокси. Это девушка-студентка, проявляющая нетерпимость к идиотам вокруг и мыслящая в точности, как и Фрэнк. Он даёт ей уроки стрельбы, а она ему — цели, которые нужно поразить.

|

Автор рипа: S.T.A.L.K.E.R.2 (aka Stalker oK/sokol_ok)

Качество видео: HDRip-AVC [BDRip 720p] Скачать сэмпл
Формат видео: MKV

Видео кодек: AVC
Аудио кодек: AC-3

Видео: 2216 Кбит/сек, 860*366 (2,35:1), в 23,976 кадр/сек, AVC
Аудио #1: Russian, 192 Кбит/сек, 48,0 КГц, 16 бит, 2 канала(ов), AC-3 - R5 (MVO)
Аудио #2: Russian, 192 Кбит/сек, 48,0 КГц, 16 бит, 2 канала(ов), AC-3 - ozz.tv (DVO)
Аудио #3: Russian, 192 Кбит/сек, 48,0 КГц, 16 бит, 2 канала(ов), AC-3 - А.Киреев (VO)
Аудио #4: English, 192 Кбит/сек, 48,0 КГц, 16 бит, 2 канала(ов), AC-3 - Original

Код:

---[NoImage] avs [info]: 960x400p 1:1 @ 24000/1001 fps (cfr)
---[NoImage] x264 [info]: using SAR=1/1
---[NoImage] x264 [info]: using cpu capabilities: MMX2 SSE2Fast SSSE3 FastShuffle SSE4.2
---[NoImage] x264 [info]: profile Main, level 4.1
---[NoImage]
---[NoImage] x264 [info]: frame I:1968  Avg QP:18.28  size: 48451
---[NoImage] x264 [info]: frame P:71797 Avg QP:21.98  size: 13934
---[NoImage] x264 [info]: frame B:208258 Avg QP:24.69  size:  3071
---[NoImage] x264 [info]: consecutive B-frames:  2.4%  3.8%  9.9% 52.7% 13.1% 12.3%  2.2%  1.7%  0.4%  0.3%  0.2%  0.2%  0.7%
---[NoImage] x264 [info]: mb I  I16..4: 26.2%  0.0% 73.8%
---[NoImage] x264 [info]: mb P  I16..4: 24.0%  0.0%  0.0%  P16..4: 59.6%  0.0%  0.0%  0.0%  0.0%    skip:16.4%
---[NoImage] x264 [info]: mb B  I16..4:  3.7%  0.0%  0.0%  B16..8: 23.4%  0.0%  0.0%  direct: 8.9%  skip:64.1%  L0:30.0% L1:39.7% BI:30.4%
---[NoImage] x264 [info]: final ratefactor: 21.76
---[NoImage] x264 [info]: direct mvs  spatial:99.2% temporal:0.8%
---[NoImage] x264 [info]: coded y,uvDC,uvAC intra: 52.0% 53.3% 19.2% inter: 18.3% 12.7% 3.3%
---[NoImage] x264 [info]: i16 v,h,dc,p: 37% 23% 26% 13%
---[NoImage] x264 [info]: i4 v,h,dc,ddl,ddr,vr,hd,vl,hu: 23% 17% 13%  7%  8%  8%  7%  8%  8%
---[NoImage] x264 [info]: i8c dc,h,v,p: 56% 18% 22%  4%
---[NoImage] x264 [info]: Weighted P-Frames: Y:4.6% UV:2.3%
---[NoImage] x264 [info]: kb/s:1180.25
---[NoImage] encoded 282023 frames, 14.58 fps, 1180.25 kb/s

Общее
Уникальный идентификатор : 207771230053520141279822524052371636334 (0x9C4F4889E706D2CF932961DA24EF806E)
Полное имя : D:HD1Bozhe.blagoslovi.Ameriku.2011.P.BDRip.720p (1).mkv
Формат : Matroska
Размер файла : 2,18 Гбайт
Продолжительность : 1 ч. 44 м.
Общий поток : 2986 Кбит/сек
Дата кодирования : UTC 2012-08-17 18:30:39
Программа кодирования : mkvmerge v4.7.0 ('Just Like You Imagined') сборка от Apr 21 2011 01:13:14
Библиотека кодирования : libebml v1.2.0 + libmatroska v1.1.0

Видео
Идентификатор : 1
Формат : AVC
Формат/Информация : Advanced Video Codec
Профиль формата : High@L4.1
Параметр CABAC формата : Да
Параметр ReFrames формата : 10 кадры
Идентификатор кодека : V_MPEG4/ISO/AVC
Продолжительность : 1 ч. 44 м.
Битрейт : 2216 Кбит/сек
Ширина : 860 пикс.
Высота : 366 пикс.
Соотношение сторон : 2,35:1
Частота кадров : 23,976 кадр/сек
Цветовое пространство : YUV
Подвыборка цветности : 4:2:0
Битовая глубина : 8 бит
Тип развёртки : Прогрессивная
Бит/(Пиксели*Кадры) : 0.294
Размер потока : 1,57 Гбайт (72%)
Библиотека кодирования : x264 core 125 r2200 999b753
Настройки программы : cabac=1 / ref=10 / deblock=1:-3:-2 / analyse=0x3:0x113 / me=umh / subme=10 / psy=1 / psy_rd=1.00:0.00 / mixed_ref=1 / me_range=32 / chroma_me=1 / trellis=2 / 8x8dct=1 / cqm=0 / deadzone=21,11 / fast_pskip=0 / chroma_qp_offset=-2 / threads=3 / lookahead_threads=1 / sliced_threads=0 / nr=0 / decimate=0 / interlaced=0 / bluray_compat=0 / constrained_intra=0 / bframes=12 / b_pyramid=2 / b_adapt=2 / b_bias=0 / direct=3 / weightb=1 / open_gop=0 / weightp=2 / keyint=240 / keyint_min=23 / scenecut=40 / intra_refresh=0 / rc_lookahead=40 / rc=2pass / mbtree=1 / bitrate=2216 / ratetol=1.0 / qcomp=0.60 / qpmin=10 / qpmax=51 / qpstep=4 / cplxblur=20.0 / qblur=0.5 / vbv_maxrate=50000 / vbv_bufsize=50000 / nal_hrd=none / ip_ratio=1.40 / aq=1:1.00
Язык : English

Аудио #1
Идентификатор : 2
Формат : AC-3
Формат/Информация : Audio Coding 3
Расширение режима : CM (complete main)
Идентификатор кодека : A_AC3
Продолжительность : 1 ч. 44 м.
Вид битрейта : Постоянный
Битрейт : 192 Кбит/сек
Канал(ы) : 2 канала(ов)
Расположение каналов : Front: L R
Частота : 48,0 КГц
Битовая глубина : 16 бит
Метод сжатия : С потерями
Размер потока : 143 Мбайт (6%)
Заголовок : R5 (MVO)
Язык : Russian

Аудио #2
Идентификатор : 3
Формат : AC-3
Формат/Информация : Audio Coding 3
Расширение режима : CM (complete main)
Идентификатор кодека : A_AC3
Продолжительность : 1 ч. 44 м.
Вид битрейта : Постоянный
Битрейт : 192 Кбит/сек
Канал(ы) : 2 канала(ов)
Расположение каналов : Front: L R
Частота : 48,0 КГц
Битовая глубина : 16 бит
Метод сжатия : С потерями
Размер потока : 143 Мбайт (6%)
Заголовок : ozz.tv (DVO)
Язык : Russian

Аудио #3
Идентификатор : 4
Формат : AC-3
Формат/Информация : Audio Coding 3
Расширение режима : CM (complete main)
Идентификатор кодека : A_AC3
Продолжительность : 1 ч. 44 м.
Вид битрейта : Постоянный
Битрейт : 192 Кбит/сек
Канал(ы) : 2 канала(ов)
Расположение каналов : Front: L R
Частота : 48,0 КГц
Битовая глубина : 16 бит
Метод сжатия : С потерями
Размер потока : 143 Мбайт (6%)
Заголовок : А.Киреев по переводу Дмитрия Goblin'a Пучкова
Язык : Russian

Аудио #4
Идентификатор : 5
Формат : AC-3
Формат/Информация : Audio Coding 3
Расширение режима : CM (complete main)
Идентификатор кодека : A_AC3
Продолжительность : 1 ч. 44 м.
Вид битрейта : Постоянный
Битрейт : 192 Кбит/сек
Канал(ы) : 2 канала(ов)
Расположение каналов : Front: L R
Частота : 48,0 КГц
Битовая глубина : 16 бит
Метод сжатия : С потерями
Размер потока : 143 Мбайт (6%)
Заголовок : Original
Язык : English

Текст #1
Идентификатор : 6
Формат : UTF-8
Идентификатор кодека : S_TEXT/UTF8
Идентификатор кодека/Информация : UTF-8 Plain Text
Заголовок : перевод Лепры (Суверенный Лепрозорий)
Язык : Russian

Текст #2
Идентификатор : 7
Формат : UTF-8
Идентификатор кодека : S_TEXT/UTF8
Идентификатор кодека/Информация : UTF-8 Plain Text
Заголовок : перевод Юрий Гришин
Язык : Russian

Текст #3
Идентификатор : 8
Формат : UTF-8
Идентификатор кодека : S_TEXT/UTF8
Идентификатор кодека/Информация : UTF-8 Plain Text
Заголовок : Перевод KingFisheR, ред-Stvstas
Язык : Russian

Текст #4
Идентификатор : 9
Формат : UTF-8
Идентификатор кодека : S_TEXT/UTF8
Идентификатор кодека/Информация : UTF-8 Plain Text
Заголовок : Full
Язык : English

Текст #5
Идентификатор : 10
Формат : UTF-8
Идентификатор кодека : S_TEXT/UTF8
Идентификатор кодека/Информация : UTF-8 Plain Text
Заголовок : SDH
Язык : English

Меню
00:00:00.000 : en:Chapter 01
00:06:34.936 : en:Chapter 02
00:18:07.419 : en:Chapter 03
00:27:42.619 : en:Chapter 04
00:37:28.120 : en:Chapter 05
00:45:35.023 : en:Chapter 06
00:53:57.067 : en:Chapter 07
01:11:50.431 : en:Chapter 08
01:18:16.566 : en:Chapter 09
01:28:09.617 : en:Chapter 10
01:31:49.921 : en:Chapter 11
01:39:28.671 : en:Chapter 12

(R424424562354) (Z226499406145)
pb.wtf



Скачать Боже, Благослови Америку через торрент http://i40.fastpic.ru/big/2012/0814/10/9377290b4368c9cc7bb384105a717510.png Скачать, смотреть онлайн Боже, Благослови Америку бесплантно в хорошем качестве Описание: Фрэнк просто выдохся: сосед-невежа, постоянный плач ребенка, глупая болтовня коллег, и в довершение всего — ещё и опухоль мозга. ... 8.5 10 4
Info! Золотая раздача, скачанное не засчитывается.
Торрент: Зарегистрирован [2012-11-20 17:49] · скачан: 373 раз
Статус: √ проверено
Размер: 2.18 GB
Как cкачать? Как скачать Боже, Благослови Америку через торрент | UTorrent

28-11-2019 20:33  

Отключить всю рекламу на сайте

    Дорогой пользователь! Огромная просьба, поблагодарите релизера, оцените раздачу и оставьте свои комментарий, если Вы скачали Боже, Благослови Америку через торрент бесплатно!
    Комментировать посты могут только пользователи прошедшие не сложную регистрацию
    Показать сообщения:    

    Боже, Благослови Америку через торрент
    Скачать бесплатно Боже, Благослови Америку
    Боже, Благослови Америку скачать торрент
    Боже, Благослови Америку смотреть онлайн
    Cкачать фильм Боже, Благослови Америку бесплатно
    Боже, Благослови Америку скачать торрент в хорошем качестве
    Боже, Благослови Америку смотреть онлайн бесплатно в хорошем качестве


    Вы не можете начинать темы
    Вы не можете отвечать на сообщения
    Вы не можете редактировать свои сообщения
    Вы не можете удалять свои сообщения
    Вы не можете голосовать в опросах
    Вы не можете прикреплять файлы к сообщениям
    Вы можете скачивать файлы