Ссылка на приватное зеркало нашего сайта всего за 1$. Внимание количество ограничено!!!

2 сезон

iTunes

1 сезон

1

iTunes

iTunes

iTunes

1 сезон

RePack

30

ИГРА 18+

pack

ВАЖНО

!!Акция!!

Alien_RageХит недели

RePack

MK11
pack

Забери бонус

RePack

jed

!!Акция!!

Alien_Rage

RePack

fifa19

RePack

Assassins Creed: Odyssey

RePack

NEED FOR SPEED™ PAYBACK

4 сезон

9 сезон

Бесстыжие 9 сезон

Все сериалы

все сериалы на PB.wtf

RePack

FAR CRY 5
  

Си-бемоль-кокос / Why Stop Now (Фил Дорлинг, Рон Нисуонер) [2012 г., драма, комедия, BDRip (720p)] Перевод отсутствует pb.wtf

Си-бемоль-кокос через торрент pb.wtf

Размер: 4.37 GB | Добавлен: 7 лет 11 мес. назад | Торрент скачан:54 раза
Скачать  

21-11-2012 13:45 Си-бемоль-кокос Скачать торрент  

Си-бемоль-кокос / Why Stop Now

Год выпуска: 2012
Страна: США
Жанр: драма, комедия
Продолжительность: 01:27:58
Перевод: Отсутствует
Язык: Английский
Субтитры: Отсутствуют

Режиссер: Фил Дорлинг, Рон Нисуонер
Продюссер: Неда Армиан, Брайс Даль Фарра, Клод Даль Фарра
Сценарий: Рон Нисуонер, Фил Дорлинг

Мировой рейтинг IMDB 5.20 (1 441)


В ролях: Джесси Айзенберг, Мелисса Лео, Трэйси Морган, Исайя Уитлок мл., Сара Рамос, Эмма Рэйн Лайл, Стефани Марч, Таня Райт, Дин Ф. Барнс, Джейс Барток

Описание: Элай Смит — гениальный пианист. Но вместо вступительных экзаменов в престижное музыкальное училище его беспокоят совсем другие проблемы — ему нужно устроить маму в клинику для наркозависимых. Врач объясняет Элаю, что самый быстрый и надежный способ оказаться в лечебном заведении — явиться сюда «под кайфом». Элай отправляется с мамой на поиски дозы, которую берутся раздобыть два чернокожих брата со связями в тайском ресторане... Хозяин ресторанчика неожиданно проявляет живейший интерес к маме Элая в то время как самому парню надо во что бы то ни стало успеть на последний тур экзамена... Так начинается безбашенное приключение в поисках никому ненужного кайфа...

Качество: BDRip (720p)
Формат: MKV
Видео кодек: H.26x
Аудио кодек: DTS
Видео: AVC 1280x536 (2.40:1) 23.976 fps 5 599 Kbps
Аудио#1: DTS 6 channels 1 510 Kbps, 48.0 KHz

General
Complete name Why Stop Now.mkv
Format : Matroska
Format version : Version 2
File size : 4.37 GiB
Duration : 1h 27mn
Overall bit rate : 7 109 Kbps
Writing application : mkvmerge v4.1.1 ('Bouncin' Back') built on Jul 3 2010 22:54:08
Writing library : libebml v1.0.0 + libmatroska v1.0

Video
ID : 1
Format : AVC
Format/Info : Advanced Video Codec
Format profile : High@L4.1
Format settings, CABAC : Yes
Format settings, ReFrames : 5 frames
Codec ID : V_MPEG4/ISO/AVC
Duration : 1h 27mn
Bit rate : 5 599 Kbps
Width : 1 280 pixels
Height : 536 pixels
Display aspect ratio : 2.40:1
Frame rate : 23.976 fps
Color space : YUV
Chroma subsampling : 4:2:0
Bit depth : 8 bits
Scan type : Progressive
Bits/(Pixel*Frame) : 0.340
Stream size : 3.35 GiB (77%)
Writing library : x264 core 129 r2230 1cffe9f

Language : English
Default : Yes
Forced : No

Audio
ID : 2
Format : DTS
Format/Info : Digital Theater Systems
Codec ID : A_DTS
Duration : 1h 27mn
Bit rate mode : Constant
Bit rate : 1 510 Kbps
Channel(s) : 6 channels
Channel positions : Front: L C R, Side: L R, LFE
Sampling rate : 48.0 KHz
Bit depth : 24 bits
Compression mode : Lossy
Stream size : 950 MiB (21%)
Language : English
Default : Yes
Forced : No


Си-бемоль-кокос скачать торрент


pb.wtf



Скачать Си-бемоль-кокос через торрент http://i47.fastpic.ru/big/2012/1120/33/1da14e1efe309d80ebaf90cb8d9e5c33.jpg Скачать фильм Си-бемоль-кокос через торрент бесплантно в хорошем качестве Описание: Элай Смит — гениальный пианист. Но вместо вступительных экзаменов в престижное музыкальное училище его беспокоят совсем другие ... 5 10 1
Info! Золотая раздача, скачанное не засчитывается.
Торрент: Зарегистрирован [2012-11-21 13:45] · скачан: 54 раз
Статус: √ проверено
Размер: 4.37 GB
Как cкачать? Как скачать Си-бемоль-кокос через торрент | qTorrent

28-11-2019 20:33  

Отключить всю рекламу на сайте

21-11-2012 13:56 Си-бемоль-кокос Скачать торрент  

во блин чуть снова не скачал, опять без перевода...pb.wtf



21-11-2012 14:47 Си-бемоль-кокос Скачать торрент  

Друг, зачем выкладывать без перевода? Понимаю, что есть люди свободно владеющие английским, но сомневаюсь, что их большинство...

Скачивать никто не заставляет! Не подходит релиз - "проходим мимо"... pb.wtf



    Дорогой пользователь! Огромная просьба, поблагодарите релизера, оцените раздачу и оставьте свои комментарий, если Вы скачали Си-бемоль-кокос через торрент бесплатно! Внесите свою лепту в развитие PiratBit!
    Комментировать посты могут только пользователи прошедшие не сложную регистрацию
    Показать сообщения:    

    Си-бемоль-кокос через торрент
    Скачать бесплатно Си-бемоль-кокос
    Си-бемоль-кокос скачать торрент
    Си-бемоль-кокос смотреть онлайн
    Cкачать фильм Си-бемоль-кокос бесплатно
    Си-бемоль-кокос скачать торрент в хорошем качестве
    Си-бемоль-кокос смотреть онлайн бесплатно в хорошем качестве


    Вы не можете начинать темы
    Вы не можете отвечать на сообщения
    Вы не можете редактировать свои сообщения
    Вы не можете удалять свои сообщения
    Вы не можете голосовать в опросах
    Вы не можете прикреплять файлы к сообщениям
    Вы можете скачивать файлы