2 сезон

iTunes

MVO

1

2 сезон

iTunes

iTunes

1 сезон

RePack

30

Новинка

ВАЖНО

ИГРА 18+

pack

RePack

MK11
pack

Легкие деньги

RePack

jed

RePack

fifa19

RePack

RDR2

RePack

NEED FOR SPEED™ PAYBACK

4 сезон

9 сезон

Бесстыжие 9 сезон

Все сериалы

все сериалы на PB.wtf

RePack

FAR CRY 5

Anonymous, добрый вечер, мы не успеваем собрать деньги на оплату серверов за декабрь и январь, помогите нам пожалуйста в это трудное время. В качестве благодарности мы отключим Вам всю рекламу на сайте (укажите свой ник в строку Ваше имя)!

×
  
Magnet ссылка

Секретная служба Санта-Клауса / Arthur Christmas (Сара Смит, Бэрри Кук / Sarah Smith, Barry Cook) [2011, мультфильм, драма, комедия, семейный, DVD9] R5 pb.wtf

Секретная служба Санта-Клауса через торрент pb.wtf

Размер: 7.41 GB | Добавлен: 8 лет 2 мес. назад | Торрент скачан:122 раза
Скачать  

23-11-2012 15:34 Секретная служба Санта-Клауса Скачать торрент  


Секретная служба Санта-Клауса / Arthur Christmas
«А вам слабо развезти 2 миллиарда подарков за одну ночь?»
Страна: Великобритания, США
Студия: Aardman Animations, Sony Pictures Animation
Жанр: мультфильм, драма, комедия, семейный
Год выпуска: 2011
Мировая премьера: 11 ноября 2011
Российская премьера: 8 декабря 2011, 3D
Дата выхода DVD: 27 ноября 2012
Дата выхода Blu-Ray: 27 ноября 2012
Продолжительность: 01:33:34
Перевод: Профессиональный (дублированный) [Лицензия]
Cубтитры: русские, английские, эстонские, греческие, латвийские, литовские, украинские
Оригинальная аудиодорожка: английский
Режиссер: Сара Смит, Бэрри Кук / Sarah Smith, Barry Cook
Роли озвучивали: Джеймс МакЭвой, Хью Лори, Билл Найи, Джим Броудбент, Имелда Стонтон, Эшли Дженсен, Марк Вуттон, Лора Линни, Ева Лонгория, Рамона Маркес
Роли дублировали: Антон Колесников, Игорь Балалаев, Александр Леньков, Александр Новиков, Людмила Гнилова
Описание: Фильм приоткрывает завесу тайны над тем, каким образом Санта-Клаусу удается развезти подарки всем детям на Земле всего за одну ночь.
Бонусы: Создание фильма, Съемки клипа Джастина Бибера "SANTA CLAUS COMIN' TO TOWN", Видеоклип Джастина Бибера "SANTA CLAUS COMIN' TO TOWN", Создание отдельных сцен, Вербовка эльфов

Релиз группы:
Качество: DVD9 R5
Формат: DVD-Video
Видео кодек: MPEG2
Аудио кодек: AC3
Видео: PAL 16:9 (720x576(0.550)) MPEG Video, 25,000 кадр/сек, 5701 Кбит/сек
Аудио #1: English (Dolby AC3, 6 ch) 448 Кбит/сек, 48,0 КГц
Аудио #2: Estonian (Dolby AC3, 2 ch) 192 Кбит/сек, 48,0 КГц
Аудио #3: Greek (Dolby AC3, 2 ch) 192 Кбит/сек, 48,0 КГц
Аудио #4: Latvian (Dolby AC3, 2 ch) 192 Кбит/сек, 48,0 КГц
Аудио #5: Lithuanian (Dolby AC3, 2 ch) 192 Кбит/сек, 48,0 КГц
Аудио #6: Russian (Dolby AC3, 6 ch) 384 Кбит/сек, 48,0 КГц
Аудио #7: Ukrainian (Dolby AC3, 2 ch) 192 Кбит/сек, 48,0 КГц



Title: Sekretnaya.sluzhba.Santa-Klausa.2011.DVD9
Size: 7.41 Gb ( 7 769 616,00 KBytes ) - DVD-9
Enabled regions: 1, 2, 3, 4, 5, 6, 7, 8

VTS_01 :
Play Length: 01:33:34
Video: PAL 16:9 (720x576) VBR, Auto Letterboxed
Audio:
English (Dolby AC3, 6 ch)
Estonian (Dolby AC3, 2 ch)
Greek (Dolby AC3, 2 ch)
Latvian (Dolby AC3, 2 ch)
Lithuanian (Dolby AC3, 2 ch)
Russian (Dolby AC3, 6 ch)
Ukrainian (Dolby AC3, 2 ch)
Subtitles:
English
Estonian
Greek
Latvian
Lithuanian
Russian
Ukrainian

VTS_02 :
Play Length: 00:12:54+00:01:37+00:01:02
Video: PAL 16:9 (720x576) VBR, Auto Letterboxed
Audio:
English (Dolby AC3, 2 ch)

VTS_03 :
Play Length: 00:00:00+00:00:10+00:00:10+00:00:12+00:00:10+00:00:08+00:00:10+00:00:10+00:00:10+{00:00:00}+{00:00:10}+{00:00:10}+{00:00:12}+{00:00:10}+{00:00:08}+00:00:10+00:00:10+{00:00:10}+{00:00:00}+00:00:10+00:00:10+00:00:05+00:00:10+00:00:10+00:00:10+00:00:10+00:00:10+00:00:05+00:00:10+00:00:10+00:00:10+00:00:10+00:00:08+00:00:05+00:00:10+00:00:05+00:00:10+00:00:05+00:00:10+00:00:10+00:00:00
Video: PAL 16:9 (720x576) VBR, Auto Letterboxed
Audio:
Not specified (Dolby AC3, 2 ch)

VTS_04 :
Play Length: 00:00:00+00:00:05+00:00:05+00:00:05+00:00:05+00:00:05+00:00:05+00:00:05+00:00:05+00:00:05+00:00:05+00:00:05+00:00:05+00:00:05+00:00:05+00:00:05+00:00:05+00:00:05+00:00:05+00:00:05+00:00:05+00:00:05+00:00:05+00:00:05+00:00:05+00:00:05+00:00:05+00:00:05+00:00:00
Video: PAL 16:9 (720x576) VBR, Auto Letterboxed
Audio:
Not specified (Dolby AC3, 2 ch)

VTS_05 :
Play Length: 00:00:10
Video: PAL 16:9 (720x576) VBR, Auto Letterboxed
Audio:
Not specified (Dolby AC3, 2 ch)

VTS_06 :
Play Length: 00:00:46
Video: PAL 16:9 (720x576) VBR, Auto Pan&Scan
Audio:
Not specified (Dolby AC3, 6 ch)

VTS_07 :
Play Length: 00:00:00+00:00:12+00:00:00
Video: PAL 4:3 (720x576) VBR

VTS_08 :
Play Length: 00:00:00
Video: PAL 16:9 (720x576) VBR, Auto Letterboxed

VTS_09 :
Play Length: 00:00:05
Video: PAL 16:9 (720x576) VBR, Auto Letterboxed
Audio:
Not specified (Dolby AC3, 2 ch)

VTS_10 :
Play Length: 00:10:00+00:10:00
Video: PAL 16:9 (720x576) VBR, Auto Letterboxed
Audio:
English (Dolby AC3, 6 ch)

VTS_11 :
Play Length: 00:13:22+00:04:45+00:02:09+00:02:34+00:02:12+00:02:12
Video: PAL 16:9 (720x576) VBR, Auto Letterboxed
Audio:
English (Dolby AC3, 2 ch)

VTS_12 :
Play Length: 00:02:27
Video: PAL 16:9 (720x576) VBR, Auto Letterboxed
Audio:
English (Dolby AC3, 2 ch)

* Menus Information *

VIDEO_TS Menu
Video:
PAL 16:9 (720x576) VBR
Auto Pan&Scan
Audio:
Not specified (Dolby AC3, 6 ch)
English Language Unit :
Title Menu

VTS_01 Menu
Video:
PAL 16:9 (720x576) VBR
Auto Pan&Scan
Audio:
Not specified (Dolby AC3, 2 ch)
English Language Unit :
Root Menu
Chapter (PTT) Menu

VTS_02 Menu
Video:
PAL 16:9 (720x576) VBR
Auto Pan&Scan
English Language Unit :
Root Menu
Chapter (PTT) Menu

VTS_03 Menu
Video:
PAL 16:9 (720x576) VBR
Auto Pan&Scan
English Language Unit :
Root Menu
Chapter (PTT) Menu

VTS_04 Menu
Video:
PAL 16:9 (720x576) VBR
Auto Pan&Scan
English Language Unit :
Root Menu
Chapter (PTT) Menu

VTS_05 Menu
Video:
PAL 16:9 (720x576) VBR
Auto Pan&Scan
English Language Unit :
Root Menu
Chapter (PTT) Menu

VTS_06 Menu
Video:
PAL 16:9 (720x576) VBR
Auto Pan&Scan
English Language Unit :
Root Menu
Chapter (PTT) Menu

VTS_07 Menu
Video:
PAL 16:9 (720x576) VBR
Auto Pan&Scan
English Language Unit :
Root Menu
Chapter (PTT) Menu

VTS_08 Menu
Video:
PAL 16:9 (720x576) VBR
Auto Pan&Scan
English Language Unit :
Root Menu
Chapter (PTT) Menu

VTS_09 Menu
Video:
PAL 16:9 (720x576) VBR
Auto Pan&Scan
English Language Unit :
Root Menu
Chapter (PTT) Menu

VTS_10 Menu
Video:
PAL 16:9 (720x576) VBR
Auto Pan&Scan
English Language Unit :
Root Menu
Chapter (PTT) Menu

VTS_11 Menu
Video:
PAL 16:9 (720x576) VBR
Auto Pan&Scan
English Language Unit :
Root Menu
Chapter (PTT) Menu

VTS_12 Menu
Video:
PAL 16:9 (720x576) VBR
Auto Pan&Scan
English Language Unit :
Root Menu
Chapter (PTT) Menu
Общее
Полное имя : J:Новинки 2012Sekretnaya.sluzhba.Santa-Klausa.2011.DVD9VIDEO_TSVTS_01_2.VOB
Формат : MPEG-PS
Размер файла : 1024 Мбайт
Продолжительность : 18 м.
Режим общего битрейта : Переменный
Общий поток : 7646 Кбит/сек

Видео
Идентификатор : 224 (0xE0)
Формат : MPEG Video
Версия формата : Version 2
Профиль формата : Main@Main
Параметр BVOP формата : Да
Параметр матрицы формата : Выборочная
Параметр GOP формата : Variable
Продолжительность : 18 м.
Вид битрейта : Переменный
Битрейт : 5701 Кбит/сек
Максимальный битрейт : 9800 Кбит/сек
Ширина : 720 пикселей
Высота : 576 пикселей
Соотношение сторон : 16:9
Частота кадров : 25,000 кадров/сек
Стандарт вещания : PAL
Цветовое пространство : YUV
Субдискретизация насыщенности : 4:2:0
Битовая глубина : 8 бит
Тип развёртки : Прогрессивная
Порядок развёртки : Верхнее поле первое
Метод сжатия : С потерями
Бит/(Пиксели*Кадры) : 0.550
Размер потока : 763 Мбайт (75%)

Аудио #1
Идентификатор : 189 (0xBD)-128 (0x80)
Формат : AC-3
Формат/Информация : Audio Coding 3
Расширение режима : CM (complete main)
Параметр Endianness формата : Big
Режим смешивания : DVD-Video
Продолжительность : 18 м.
Вид битрейта : Постоянный
Битрейт : 448 Кбит/сек
Каналы : 6 каналов
Расположение каналов : Front: L C R, Side: L R, LFE
Частота : 48,0 КГц
Битовая глубина : 16 бит
Метод сжатия : С потерями
Задержка видео : -704 мс.
Размер потока : 60,0 Мбайт (6%)

Аудио #2
Идентификатор : 189 (0xBD)-129 (0x81)
Формат : AC-3
Формат/Информация : Audio Coding 3
Профиль формата : Dolby Digital
Расширение режима : CM (complete main)
Параметр Endianness формата : Big
Режим смешивания : DVD-Video
Продолжительность : 18 м.
Вид битрейта : Постоянный
Битрейт : 192 Кбит/сек
Каналы : 2 канала
Расположение каналов : Front: L R
Частота : 48,0 КГц
Битовая глубина : 16 бит
Метод сжатия : С потерями
Задержка видео : -608 мс.
Размер потока : 25,7 Мбайт (3%)

Аудио #3
Идентификатор : 189 (0xBD)-130 (0x82)
Формат : AC-3
Формат/Информация : Audio Coding 3
Профиль формата : Dolby Digital
Расширение режима : CM (complete main)
Параметр Endianness формата : Big
Режим смешивания : DVD-Video
Продолжительность : 18 м.
Вид битрейта : Постоянный
Битрейт : 192 Кбит/сек
Каналы : 2 канала
Расположение каналов : Front: L R
Частота : 48,0 КГц
Битовая глубина : 16 бит
Метод сжатия : С потерями
Задержка видео : -608 мс.
Размер потока : 25,7 Мбайт (3%)

Аудио #4
Идентификатор : 189 (0xBD)-131 (0x83)
Формат : AC-3
Формат/Информация : Audio Coding 3
Профиль формата : Dolby Digital
Расширение режима : CM (complete main)
Параметр Endianness формата : Big
Режим смешивания : DVD-Video
Продолжительность : 18 м.
Вид битрейта : Постоянный
Битрейт : 192 Кбит/сек
Каналы : 2 канала
Расположение каналов : Front: L R
Частота : 48,0 КГц
Битовая глубина : 16 бит
Метод сжатия : С потерями
Задержка видео : -608 мс.
Размер потока : 25,7 Мбайт (3%)

Аудио #5
Идентификатор : 189 (0xBD)-132 (0x84)
Формат : AC-3
Формат/Информация : Audio Coding 3
Профиль формата : Dolby Digital
Расширение режима : CM (complete main)
Параметр Endianness формата : Big
Режим смешивания : DVD-Video
Продолжительность : 18 м.
Вид битрейта : Постоянный
Битрейт : 192 Кбит/сек
Каналы : 2 канала
Расположение каналов : Front: L R
Частота : 48,0 КГц
Битовая глубина : 16 бит
Метод сжатия : С потерями
Задержка видео : -608 мс.
Размер потока : 25,7 Мбайт (3%)

Аудио #6
Идентификатор : 189 (0xBD)-133 (0x85)
Формат : AC-3
Формат/Информация : Audio Coding 3
Расширение режима : CM (complete main)
Параметр Endianness формата : Big
Режим смешивания : DVD-Video
Продолжительность : 18 м.
Вид битрейта : Постоянный
Битрейт : 384 Кбит/сек
Каналы : 6 каналов
Расположение каналов : Front: L C R, Side: L R, LFE
Частота : 48,0 КГц
Битовая глубина : 16 бит
Метод сжатия : С потерями
Задержка видео : -672 мс.
Размер потока : 51,4 Мбайт (5%)

Аудио #7
Идентификатор : 189 (0xBD)-134 (0x86)
Формат : AC-3
Формат/Информация : Audio Coding 3
Профиль формата : Dolby Digital
Расширение режима : CM (complete main)
Параметр Endianness формата : Big
Режим смешивания : DVD-Video
Продолжительность : 18 м.
Вид битрейта : Постоянный
Битрейт : 192 Кбит/сек
Каналы : 2 канала
Расположение каналов : Front: L R
Частота : 48,0 КГц
Битовая глубина : 16 бит
Метод сжатия : С потерями
Задержка видео : -608 мс.
Размер потока : 25,7 Мбайт (3%)

Текст #1
Идентификатор : 189 (0xBD)-32 (0x20)
Формат : RLE
Формат/Информация : Run-length encoding
Режим смешивания : DVD-Video
Продолжительность : 18 м.
Задержка видео : 40 мс.

Текст #2
Идентификатор : 189 (0xBD)-34 (0x22)
Формат : RLE
Формат/Информация : Run-length encoding
Режим смешивания : DVD-Video
Продолжительность : 18 м.
Задержка видео : 40 мс.

Текст #3
Идентификатор : 189 (0xBD)-37 (0x25)
Формат : RLE
Формат/Информация : Run-length encoding
Режим смешивания : DVD-Video
Продолжительность : 18 м.
Задержка видео : 40 мс.










pb.wtf



Скачать Секретная служба Санта-Клауса через торрент http://i48.fastpic.ru/big/2012/1123/7f/fa1660679e2296dbbca119cd43be737f.jpg Скачать фильм Секретная служба Санта-Клауса через торрент бесплантно в хорошем качестве Описание: Фильм приоткрывает завесу тайны над тем, каким образом Санта-Клаусу удается развезти подарки всем детям на Земле всего за одну ... 6 10 2
Info! Золотая раздача, скачанное не засчитывается.
Торрент: Зарегистрирован [2012-11-23 15:34] · скачан: 122 раз
Статус: √ проверено
Размер: 7.41 GB
Как cкачать? Как скачать Секретная служба Санта-Клауса через торрент | UTorrent

% Раздел Тема Автор DL S | L
Мультфильмы (48-60 fps) [ 3.58 GB ] Секретная служба Санта-Клауса / Arthur Christmas [2011 мультфильм BDRip-AVC 60fps Dub] от R.G. HD-Films Tiberiumsun69 Скачать
10 | 0


Последний раз редактировалось: voovaz (2012-11-23 17:20), всего редактировалось 1 раз

28-11-2019 20:33  

Отключить всю рекламу на сайте

23-11-2012 15:40 Секретная служба Санта-Клауса Скачать торрент  

мне кажется или какчество картинки гаденькое??pb.wtf



    Дорогой пользователь! Огромная просьба, поблагодарите релизера, оцените раздачу и оставьте свои комментарий, если Вы скачали Секретная служба Санта-Клауса через торрент бесплатно! Внесите свою лепту в развитие PiratBit!
    Комментировать посты могут только пользователи прошедшие не сложную регистрацию
    Показать сообщения:    

    Секретная служба Санта-Клауса через торрент
    Скачать бесплатно Секретная служба Санта-Клауса
    Секретная служба Санта-Клауса скачать торрент
    Секретная служба Санта-Клауса смотреть онлайн
    Cкачать фильм Секретная служба Санта-Клауса бесплатно
    Секретная служба Санта-Клауса скачать торрент в хорошем качестве
    Секретная служба Санта-Клауса смотреть онлайн бесплатно в хорошем качестве


    Вы не можете начинать темы
    Вы не можете отвечать на сообщения
    Вы не можете редактировать свои сообщения
    Вы не можете удалять свои сообщения
    Вы не можете голосовать в опросах
    Вы не можете прикреплять файлы к сообщениям
    Вы можете скачивать файлы