Ссылка на приватное зеркало нашего сайта всего за 1$. Внимание количество ограничено!!!

2 сезон

iTunes

1 сезон

1

iTunes

iTunes

iTunes

1 сезон

RePack

30

ИГРА 18+

pack

ВАЖНО

!!Акция!!

Alien_RageХит недели

RePack

MK11
pack

Забери бонус

RePack

jed

!!Акция!!

Alien_Rage

RePack

fifa19

RePack

Assassins Creed: Odyssey

RePack

NEED FOR SPEED™ PAYBACK

4 сезон

9 сезон

Бесстыжие 9 сезон

Все сериалы

все сериалы на PB.wtf

RePack

FAR CRY 5
  

Солнцестояние / Solstice (Дэниэл Мирик) [2008 г., ужасы, триллер, драма, детектив, BDRip 720p, DUB] pb.wtf

Солнцестояние через торрент pb.wtf

Размер: 8.44 GB | Добавлен: 7 лет 11 мес. назад | Торрент скачан:166 раз
Скачать  

24-11-2012 05:45 Солнцестояние Скачать торрент  

Солнцестояние / Solstice
«Между страхом и нетерпением. В самый длинный день...»

Год выпуска: 2008
Страна: США
Жанр: ужасы, триллер, драма, детектив
Продолжительность: 01:27:03
Перевод: Дубляж
Субтитры: Русские, английские
Режиссер: Дэниэл Мирик
Продюссер: Адам Дель Део, Джеймс Д. Штерн, Мередит Энн Берг
Сценарий: Дэниэл Мирик, Марти Мусатов, Этан Эрвин
Мировой рейтинг IMDB 5.20 (3 330)

В ролях: Элизабет Арнуа, Шон Эшмор, Хилари Бертон, Аманда Сайфред, Тайлер Хэклин, Мэтью О’Лири, Р. Ли Эрми, Лиза Арнольд, Лайл Брокато, Дэвид Дальгрен
Описание: После того, как Меган при таинственных обстоятельствах теряет свою сестру-близняшку, она с друзьями отправляется в родительский дом у озера, чтобы немного отвлечься и понаблюдать за летним солнцестоянием, традиционным местным явлением.Говорят, что во время солнцестояния живым легче всего входить в контакт с умершими. Заинтригованная сей новостью, Меган воодушевляется снова услышать голос сестры. Экспериментируя с местными заклинаниями, она вызывает дух совершенно другой девушки, в смерти которой, скорее всего, виновата её сестра...
Качество: BDRip 720p
Формат: MKV
Видео кодек: H.264x
Аудио кодек: AC3,DTS
Видео: AVC at 11,5 Мбит/сек Aspect : 1920 x 816 (2.353) at 25.000 fps
Аудио#1: AC-3 at 448 Кбит/сек Infos : 6 каналов, 48,0 КГц Language : Дублированный
Аудио#2: DTS at 1510 Кбит/сек Infos : 6 каналов, 48,0 КГц Language : en
Аудио#3: AC-3 at 384 Кбит/сек Infos : 6 каналов, 48,0 КГц Language : профессиональный двухголосый

Код:

Общее
Уникальный идентификатор                 : 240700760221097226812936929713443586009 (0xB51547B986C2A42280E6478600C03FD9)
Полное имя                               : C:UsersСлавонDesktopНовая папкаSolstice.2008.1080p.BluRay.2.Rus.Eng.x264-aAF.mkv
Формат                                   : Matroska
Версия формата                           : Version 2
Размер файла                             : 8,44 Гбайт
Продолжительность                        : 1 ч. 27 м.
Общий поток                              : 13,9 Мбит/сек
Название фильма                          : ТыНьО специально для -=RUTRACKER.RU=-
Дата кодирования                         : UTC 2010-11-17 10:38:11
Программа кодирования                    : mkvmerge v4.2.0 ('No Talking') сборка от Jul 28 2010 18:38:23
Библиотека кодирования                   : libebml v1.0.0 + libmatroska v1.0.0

Видео
Идентификатор                            : 1
Формат                                   : AVC
Формат/Информация                        : Advanced Video Codec
Профиль формата                          : High@L4.1
Параметр CABAC формата                   : Да
Параметр ReFrames формата                : 5 кадров
Идентификатор кодека                     : V_MPEG4/ISO/AVC
Продолжительность                        : 1 ч. 27 м.
Битрейт                                  : 11,5 Мбит/сек
Ширина                                   : 1920 пикселей
Высота                                   : 816 пикселей
Соотношение сторон                       : 2,35:1
Режим частоты кадров                     : Постоянный
Частота кадров                           : 25,000 кадров/сек
Цветовое пространство                    : YUV
Субдискретизация насыщенности            : 4:2:0
Битовая глубина                          : 8 бит
Тип развёртки                            : Прогрессивная
Бит/(Пиксели*Кадры)                      : 0.295
Размер потока                            : 6,85 Гбайт (81%)
Заголовок                                : Solstice.2008.1080p.BluRay.x264-aAF
Библиотека кодирования                   : x264 core 93 r1538 bd72d46
Настройки программы                      : cabac=1 / ref=5 / deblock=1:0:0 / analyse=0x3:0x133 / me=umh / subme=8 / psy=1 / psy_rd=1.00:0.00 / mixed_ref=1 / me_range=16 / chroma_me=1 / trellis=1 / 8x8dct=1 / cqm=0 / deadzone=21,11 / fast_pskip=0 / chroma_qp_offset=-2 / threads=3 / sliced_threads=0 / nr=0 / decimate=1 / interlaced=0 / constrained_intra=0 / bframes=3 / b_pyramid=2 / b_adapt=1 / b_bias=0 / direct=1 / wpredb=1 / wpredp=2 / keyint=250 / keyint_min=25 / scenecut=40 / intra_refresh=0 / rc_lookahead=40 / rc=2pass / mbtree=1 / bitrate=11543 / ratetol=1.0 / qcomp=0.60 / qpmin=10 / qpmax=51 / qpstep=4 / cplxblur=20.0 / qblur=0.5 / ip_ratio=1.40 / aq=1:1.00
Язык                                     : English
Default                                  : Нет
Forced                                   : Нет

Аудио #1
Идентификатор                            : 2
Формат                                   : AC-3
Формат/Информация                        : Audio Coding 3
Расширение режима                        : CM (complete main)
Параметр Endianness формата              : Big
Идентификатор кодека                     : A_AC3
Продолжительность                        : 1 ч. 27 м.
Вид битрейта                             : Постоянный
Битрейт                                  : 448 Кбит/сек
Каналы                                   : 6 каналов
Расположение каналов                     : Front: L C R, Side: L R, LFE
Частота                                  : 48,0 КГц
Битовая глубина                          : 16 бит
Метод сжатия                             : С потерями
Размер потока                            : 279 Мбайт (3%)
Заголовок                                : Дубляж, R5
Язык                                     : Russian
Default                                  : Да
Forced                                   : Да

Аудио #2
Идентификатор                            : 3
Формат                                   : DTS
Формат/Информация                        : Digital Theater Systems
Идентификатор кодека                     : A_DTS
Продолжительность                        : 1 ч. 27 м.
Вид битрейта                             : Постоянный
Битрейт                                  : 1510 Кбит/сек
Каналы                                   : 6 каналов
Расположение каналов                     : Front: L C R, Side: L R, LFE
Частота                                  : 48,0 КГц
Битовая глубина                          : 16 бит
Метод сжатия                             : С потерями
Размер потока                            : 940 Мбайт (11%)
Язык                                     : English
Default                                  : Нет
Forced                                   : Нет

Аудио #3
Идентификатор                            : 4
Формат                                   : AC-3
Формат/Информация                        : Audio Coding 3
Расширение режима                        : CM (complete main)
Параметр Endianness формата              : Big
Идентификатор кодека                     : A_AC3
Продолжительность                        : 1 ч. 27 м.
Вид битрейта                             : Постоянный
Битрейт                                  : 384 Кбит/сек
Каналы                                   : 6 каналов
Расположение каналов                     : Front: L C R, Side: L R, LFE
Частота                                  : 48,0 КГц
Битовая глубина                          : 16 бит
Метод сжатия                             : С потерями
Размер потока                            : 239 Мбайт (3%)
Заголовок                                : Многоголоска Электрички
Язык                                     : Russian
Default                                  : Нет
Forced                                   : Нет

Текст #1
Идентификатор                            : 5
Формат                                   : UTF-8
Идентификатор кодека                     : S_TEXT/UTF8
Идентификатор кодека/Информация          : UTF-8 Plain Text
Язык                                     : Russian
Default                                  : Да
Forced                                   : Нет

Текст #2
Идентификатор                            : 6
Формат                                   : UTF-8
Идентификатор кодека                     : S_TEXT/UTF8
Идентификатор кодека/Информация          : UTF-8 Plain Text
Язык                                     : English
Default                                  : Нет
Forced                                   : Нет[/size]
[/i]



Солнцестояние скачать торрент


pb.wtf



Скачать Солнцестояние через торрент http://pic.kartinco.top/images/1/8ymr46bajx.jpg Скачать фильм Солнцестояние через торрент бесплантно в хорошем качестве Описание: После того, как Меган при таинственных обстоятельствах теряет свою сестру-близняшку, она с друзьями отправляется в родительский ... 9 10 1
Info! Золотая раздача, скачанное не засчитывается.
Торрент: Зарегистрирован [2012-11-24 05:45] · скачан: 166 раз
Статус: √ проверено
Размер: 8.44 GB
Как cкачать? Как скачать Солнцестояние через торрент | qTorrent

% Раздел Тема Автор DL S | L
Фильмы 2006-2008 [ 1.69 GB ] Солнцестояние / Solstice [2008 BDRip лицензия] makarevich Скачать
1 | 0

28-11-2019 20:33  

Отключить всю рекламу на сайте

    Дорогой пользователь! Огромная просьба, поблагодарите релизера, оцените раздачу и оставьте свои комментарий, если Вы скачали Солнцестояние через торрент бесплатно! Внесите свою лепту в развитие PiratBit!
    Комментировать посты могут только пользователи прошедшие не сложную регистрацию
    Показать сообщения:    

    Солнцестояние через торрент
    Скачать бесплатно Солнцестояние
    Солнцестояние скачать торрент
    Солнцестояние смотреть онлайн
    Cкачать фильм Солнцестояние бесплатно
    Солнцестояние скачать торрент в хорошем качестве
    Солнцестояние смотреть онлайн бесплатно в хорошем качестве


    Вы не можете начинать темы
    Вы не можете отвечать на сообщения
    Вы не можете редактировать свои сообщения
    Вы не можете удалять свои сообщения
    Вы не можете голосовать в опросах
    Вы не можете прикреплять файлы к сообщениям
    Вы можете скачивать файлы