Ссылка на приватное зеркало нашего сайта всего за 1$. Внимание количество ограничено!!!

2 сезон

iTunes

1 сезон

1

2 сезон

2 сезон

iTunes

1 сезон

RePack

30

Ultimate

ВАЖНО

ИГРА 18+

pack

RePack

MK11
pack

Забери бонус

RePack

jed

!!Акция!!

Alien_Rage

RePack

fifa19

RePack

Assassins Creed: Odyssey

RePack

NEED FOR SPEED™ PAYBACK

4 сезон

9 сезон

Бесстыжие 9 сезон

Все сериалы

все сериалы на PB.wtf

RePack

FAR CRY 5
  

Рани / Rani / 1 сезон / серии 8 (8) ( Арно Селиньяк) [2011 г.,Мелодрама, Приключения. История, DVDRip, MVO] pb.wtf

Рани через торрент pb.wtf

Размер: 3.68 GB | Добавлен: 7 лет 11 мес. назад | Торрент скачан:39 раз
Скачать  

24-11-2012 13:07 Рани Скачать торрент  

Рани / Rani Год выпуска: 2011
Страна: Франция
Жанр: Мелодрама, Приключения,История
Продолжительность: 00:52:00
Перевод: профессиональный (Многоголосый закадровый),
Режиссер:Арно Селиньяк

В ролях: Милен Джампаной, Паскаль Демолон, Реми Бише, Жан-Хью Англаде, Яэль Абекассис, Оливье Ситрюк, Антуан Гуи, Дуду Маста, Джеффри Голдбер
Описание:
Приключенческий сериал "Рани" переносит нас во Францию восемнадцатого века. В 1743-м году Маркиз де Валькур оставляет наследницей незаконнорожденную дочь Жоланну. Его законный сын Филипп конечно недоволен и в приступе гнева убивает отца и скрывает доказательство смены наследника. Из-за долгов он решается на предательство и продает англичанам секретые армейские планы. Жоланна де Валькур узнает об этом и теперь Филипп охотится за ней как за ненужной свидетельницей...

Качество: DVDRip
Формат: AVI
Видео кодек: Xvid
Аудио кодек: MP3
Видео: 624x352 (1.77:1), 25 fps, XviD build 50 ~1086 kbps avg, 0.20 bit/pixel

Аудио 48 kHz, AC3 Dolby Digital, 2/0 (L,R) ch, ~192 kbps

Формат/Информация : Audio Video Interleave
Размер файла : 478 Мбайт
Продолжительность : 51 м.
Общий поток : 1288 Кбит/сек
Программа кодирования : VirtualDubModRus 1.5.10.1 (build 2439/release)
Библиотека кодирования : VirtualDubMod build 2439/release

Видео
Идентификатор : 0
Формат : MPEG-4 Visual
Профиль формата : Advanced Simple@L5
Параметр BVOP формата : 2
Параметр QPel формата : Нет
Параметр GMC формата : Без точки перехода
Параметр матрицы формата : Default (H.263)
Идентификатор кодека : XVID
Идентификатор кодека/Подсказка : XviD
Продолжительность : 51 м.
Битрейт : 1087 Кбит/сек
Ширина : 624 пикселя
Высота : 352 пикселя
Соотношение сторон : 16:9
Частота кадров : 25,000 кадров/сек
Цветовое пространство : YUV
Субдискретизация насыщенности : 4:2:0
Битовая глубина : 8 бит
Тип развёртки : Прогрессивная
Метод сжатия : С потерями
Бит/(Пиксели*Кадры) : 0.198
Размер потока : 403 Мбайт (84%)
Библиотека кодирования : XviD 1.2.1 (UTC 2008-12-04)

Аудио
Идентификатор : 1
Формат : AC-3
Формат/Информация : Audio Coding 3
Расширение режима : CM (complete main)
Параметр Endianness формата : Big
Идентификатор кодека : 2000
Продолжительность : 51 м.
Вид битрейта : Постоянный
Битрейт : 192 Кбит/сек
Каналы : 2 канала
Расположение каналов : Front: L R
Частота : 48,0 КГц
Битовая глубина : 16 бит
Метод сжатия : С потерями
Размер потока : 71,2 Мбайт (15%)
Выравнивание : Разделение по промежуткам
Продолжительность промежутка : 40 мс. (1,00 видеокадр)
Время предзагрузки промежутка : 500 мс
Внимание! Раздача ведётся путём добавления новых серий; при каждом добавлении создётся новый торрент. Чтобы начать докачку новой серии, пользователям необходимо сделать следующее:
(1) остановить скачивание,
(2) удалить старый торрент у себя из клиента (старые серии удалять не надо),
(3) скачать новый торрент и запустить его у себя в клиенте вместо старого, при этом указать клиенту путь в старую папку куда и должно происходить скачивание новых серий.

Ваш клиент при этом должен произвести хеширование (проверку) старой папки (если не производит сам - помогите ему сделать это), и будет докачивать только те серии которых у вас ещё нет. Старые серии при этом не удаляются, а продолжают раздаваться!

Eсли вы уже удалили старые серии, то предотвратить повторную закачку старых серий можно, отжав галочку в соответсвующих местах при запуске нового торрента. По возможности, желательно не удалять старые серии как можно дольше чтобы релизёр не столько продолжал раздавать старые серии, а смог сконцентрироваться на новых.
скриншот   скриншот   скриншот   скриншот   скриншот   скриншот   скриншот   скриншот  
pb.wtf



Скачать Рани через торрент http://i47.fastpic.ru/big/2012/1121/22/ca603e3f9dff1ab7bd66307a0351d422.jpg Скачать фильм Рани через торрент бесплантно в хорошем качестве Описание:Приключенческий сериал "Рани" переносит нас во Францию восемнадцатого века. В 1743-м году Маркиз де Валькур оставляет наследницей ... 5 10 1
Info! Золотая раздача, скачанное не засчитывается.
Торрент: Зарегистрирован [2012-11-25 10:46] · скачан: 39 раз
Статус: √ проверено
Размер: 3.68 GB
Как cкачать? Как скачать Рани через торрент | qTorrent



Последний раз редактировалось: akcent (2012-11-25 10:46), всего редактировалось 1 раз

28-11-2019 20:33  

Отключить всю рекламу на сайте

24-11-2012 17:41 Рани Скачать торрент  

Хороший сериалpb.wtf



12-01-2013 07:51 Рани Скачать торрент  

Да, говорят хороший, а скачать то его как? Нету никого... :(
...Не прошло и нескольких минут и единственный пир появился! Спасибо ему большое! pb.wtf



    Дорогой пользователь! Огромная просьба, поблагодарите релизера, оцените раздачу и оставьте свои комментарий, если Вы скачали Рани через торрент бесплатно! Внесите свою лепту в развитие PiratBit!
    Комментировать посты могут только пользователи прошедшие не сложную регистрацию
    Показать сообщения:    

    Рани через торрент
    Скачать бесплатно Рани
    Рани скачать торрент
    Рани смотреть онлайн
    Cкачать фильм Рани бесплатно
    Рани скачать торрент в хорошем качестве
    Рани смотреть онлайн бесплатно в хорошем качестве


    Вы не можете начинать темы
    Вы не можете отвечать на сообщения
    Вы не можете редактировать свои сообщения
    Вы не можете удалять свои сообщения
    Вы не можете голосовать в опросах
    Вы не можете прикреплять файлы к сообщениям
    Вы можете скачивать файлы