1 сезон

1 сезон

iTunes

1

КиноПоиск HD

Кинопоиск HD

iTunes

13

1 сезон

RePack

30

Новинка

ВАЖНО

ИГРА 18+

pack

RePack

MK11
pack

Легкие деньги

RePack

jed

RePack

fifa19

RePack

RDR2

RePack

NEED FOR SPEED™ PAYBACK

4 сезон

9 сезон

Бесстыжие 9 сезон

Все сериалы

все сериалы на PB.wtf

RePack

FAR CRY 5
  
Magnet ссылка

Джиперс Криперс 2 / Jeepers Creepers II (Виктор Салва) [2003 г., Мистика, Ужасы, DVDRip, Дубляж ] pb.wtf

Джиперс Криперс 2 через торрент pb.wtf

Размер: 744 MB | Добавлен: 8 лет 4 мес. назад | Торрент скачан:90 раз
Скачать  

25-11-2012 17:36 Джиперс Криперс 2 Скачать торрент  

Джиперс Криперс 2 / Jeepers Creepers II

Год выпуска: 2003
Страна: США
Жанр: Мистика, Ужасы
Продолжительность: 01:39:36
Перевод: Профессиональный (полное дублирование)

Режиссер: Виктор Сальва

Бюджет: $17 000 000
Премьера в мире: 16 мая 2003



В ролях: Джонатан Брек, Билли Аарон Браун, Джастин Лонг, Люк Эдвардс, Джош Хэммонд, Эл Сантос
Описание: Раз в 23 года зловещий крылатый монстр пробуждается от долгого сна, чтобы 23 дня насыщаться человеческой плотью и страхом своих жертв. На исходе последний день его кошмарного пира, и сегодня древнее неведомое зло ждет богатый улов - спортивная команда и очаровательные болельщицы, возвращающиеся с триумфальной игры. Они одни в сломанном автобусе на пустынном шоссе, где не работают мобильные телефоны и неоткуда ждать помощи. На закате прожорливое исчадие ада начнет свою кровавую вакханалию. Сможет ли его добыча дожить до утра, или эта неуязвимая тварь убьет объятых ужасом ребят одного за другим?
Качество: DVDRip
Формат: AVI
Видео кодек: XviD
Аудио кодек: MP3
Видео: 640x272 (2.35:1), 25 fps, XviD build 50 ~906 kbps avg, 0.21 bit/pixel
Аудио: 48 kHz, MPEG Layer 3, 2 ch, ~128.00 kbps avg
Релиз от: Scarabey

[/url]










Полное имя : C:DownloadTorrentДжиперс Криперс 2 Jeepers Creepers II (2003) DVDRip от ScarabeyJeepers_Creepers_2_DVDRip__[scarabey.org].avi
Формат : AVI
Формат/Информация : Audio Video Interleave
Размер файла : 744 Мбайт
Продолжительность : 1 ч. 39 м.
Общий поток : 1044 Кбит/сек
Программа кодирования : VirtualDubMod 1.5.10.2 (build 2540/release)
Библиотека кодирования : VirtualDubMod build 2540/release

Видео
Идентификатор : 0
Формат : MPEG-4 Visual
Профиль формата : Advanced Simple@L5
Параметр BVOP формата : 1
Параметр QPel формата : Нет
Параметр GMC формата : Без точки перехода
Параметр матрицы формата : Выборочная
Идентификатор кодека : XVID
Идентификатор кодека/Подсказка : XviD
Продолжительность : 1 ч. 39 м.
Продолжительность оригинала : 38 м.
Битрейт : 1102 Кбит/сек
Ширина : 640 пикселей
Высота : 272 пикселя
Соотношение сторон : 2,35:1
Частота кадров : 25,000 кадров/сек
Цветовое пространство : YUV
Субдискретизация насыщенности : 4:2:0
Битовая глубина : 8 бит
Тип развёртки : Прогрессивная
Метод сжатия : С потерями
Бит/(Пиксели*Кадры) : 0.253
Размер потока : 304 Мбайт (41%)
Библиотека кодирования : XviD 1.2.1 (UTC 2008-12-04)

Аудио
Идентификатор : 1
Формат : MPEG Audio
Версия формата : Version 1
Профиль формата : Layer 3
Идентификатор кодека : 55
Идентификатор кодека/Подсказка : MP3
Продолжительность : 1 ч. 39 м.
Продолжительность оригинала : 38 м.
Вид битрейта : Постоянный
Битрейт : 128 Кбит/сек
Каналы : 2 канала
Частота : 48,0 КГц
Метод сжатия : С потерями
Размер потока : 35,3 Мбайт (5%)
Выравнивание : Соединение по промежуткам
Продолжительность промежутка : 40 мс. (1,00 видеокадр)
Время предзагрузки промежутка : 504 мс.
Библиотека кодирования : LAME3.97
Настройки программы : -m s -V 4 -q 2 -lowpass 17 -b 128

pb.wtf



Скачать Джиперс Криперс 2 через торрент http://2.firepic.org/2/images/2012-11/25/vf1g7xethxni.jpg Скачать фильм Джиперс Криперс 2 через торрент бесплантно в хорошем качестве Описание: Раз в 23 года зловещий крылатый монстр пробуждается от долгого сна, чтобы 23 дня насыщаться человеческой плотью и страхом своих ... 7.7 10 3
Info! Золотая раздача, скачанное не засчитывается.
Торрент: Зарегистрирован [2012-11-25 17:36] · скачан: 90 раз
Статус: √ проверено
Размер: 744 MB
Как cкачать? Как скачать Джиперс Криперс 2 через торрент | UTorrent

% Раздел Тема Автор DL S | L
Фильмы 2001-2005 [ 1.37 GB ] Джиперс Криперс 2 / Jeepers Creepers II [2003 DVDRip] VintMosina Скачать
1 | 0
Фильмы 2001-2005 [ 1.46 GB ] Джиперс Криперс 2 / Jeepers Creepers II [2003 DVDRip-AVC] DUB Eng Sub serg7628 Скачать
1 | 0

28-11-2019 20:33  

Отключить всю рекламу на сайте

    Дорогой пользователь! Огромная просьба, поблагодарите релизера, оцените раздачу и оставьте свои комментарий, если Вы скачали Джиперс Криперс 2 через торрент бесплатно! Внесите свою лепту в развитие PiratBit!
    Комментировать посты могут только пользователи прошедшие не сложную регистрацию
    Показать сообщения:    

    Джиперс Криперс 2 через торрент
    Скачать бесплатно Джиперс Криперс 2
    Джиперс Криперс 2 скачать торрент
    Джиперс Криперс 2 смотреть онлайн
    Cкачать фильм Джиперс Криперс 2 бесплатно
    Джиперс Криперс 2 скачать торрент в хорошем качестве
    Джиперс Криперс 2 смотреть онлайн бесплатно в хорошем качестве


    Вы не можете начинать темы
    Вы не можете отвечать на сообщения
    Вы не можете редактировать свои сообщения
    Вы не можете удалять свои сообщения
    Вы не можете голосовать в опросах
    Вы не можете прикреплять файлы к сообщениям
    Вы можете скачивать файлы