1 сезон

1 сезон

iTunes

1

КиноПоиск HD

Кинопоиск HD

iTunes

13

1 сезон

RePack

30

Ultimate

ВАЖНО

ИГРА 18+

pack

RePack

MK11
pack

Легкие деньги

RePack

jed

RePack

fifa19

RePack

RDR2

RePack

NEED FOR SPEED™ PAYBACK

4 сезон

9 сезон

Бесстыжие 9 сезон

Все сериалы

все сериалы на PB.wtf

RePack

FAR CRY 5
  
Magnet ссылка

Джиперс Криперс / Jeepers Creepers (Виктор Сальва) [2001 г., Мистика, Ужасы, HDRip, Дубляж ] pb.wtf

Джиперс Криперс через торрент pb.wtf

Размер: 742 MB | Добавлен: 8 лет 4 мес. назад | Торрент скачан:78 раз
Скачать  

25-11-2012 17:38 Джиперс Криперс Скачать торрент  

Джиперс Криперс / Jeepers Creepers

Год выпуска: 2001
Страна: США
Жанр: Мистика, Ужасы
Продолжительность: 01:30:39
Перевод: Профессиональный (полное дублирование)

Режиссер: Виктор Сальва

Бюджет: $10 000 000
Премьера в мире: 20 июля 2001



В ролях: Джина Филипс, Джастин Лонг, Джонатан Брек, Айлин Бреннан, Брэндон Смит
Описание: Если бы Дэрри и Триш знали, во что превратится их обычное путешествие домой на каникулы, то остались бы в колледже навсегда. Брат и сестра заметили ЕГО на безлюдной дороге рядом с жуткой, обветшалой церковью. Страшная фигура в длинном черном плаще и широкополой шляпе скидывала в подвал свертки, испачканные чем-то красным. После увиденного нужно было немедленно вдавить педаль газа взятой напрокат машины и умчаться от этого проклятого места как можно дальше. Но Дэрри и Триш допустили непоправимую, смертельную ошибку. Они решили вернуться и посмотреть: что же ОН прячет там, в подвале покосившейся церкви? Это безрассудное любопытство обернулось самым невообразимым кошмаром, который только можно себе представить…

Качество: HDRip
Формат: AVI
Видео кодек: XviD
Аудио кодек: MP3
Видео: 624x336 (1.86:1), 23.976 fps, XviD build 50 ~1006 kbps avg, 0.20 bit/pixel
Аудио: 48 kHz, MPEG Layer 3, 2 ch, ~128.00 kbps avg
Релиз от: Scarabey

[/url]










Полное имя : C:DownloadTorrentДжиперс Криперс Jeepers Creepers (2001) HDRip от ScarabeyJeepers_Creepers_HDRip_[scarabey.org].avi
Формат : AVI
Формат/Информация : Audio Video Interleave
Размер файла : 742 Мбайт
Продолжительность : 1 ч. 30 м.
Общий поток : 1144 Кбит/сек
Программа кодирования : VirtualDubMod 1.5.10.2 (build 2540/release)
Библиотека кодирования : VirtualDubMod build 2540/release

Видео
Идентификатор : 0
Формат : MPEG-4 Visual
Профиль формата : Advanced Simple@L5
Параметр BVOP формата : 1
Параметр QPel формата : Нет
Параметр GMC формата : Без точки перехода
Параметр матрицы формата : Выборочная
Идентификатор кодека : XVID
Идентификатор кодека/Подсказка : XviD
Продолжительность : 1 ч. 30 м.
Продолжительность оригинала : 45 м.
Битрейт : 926 Кбит/сек
Ширина : 624 пикселя
Высота : 336 пикселей
Соотношение сторон : 1,85:1
Частота кадров : 23,976 кадра/сек
Цветовое пространство : YUV
Субдискретизация насыщенности : 4:2:0
Битовая глубина : 8 бит
Тип развёртки : Прогрессивная
Метод сжатия : С потерями
Бит/(Пиксели*Кадры) : 0.184
Размер потока : 299 Мбайт (40%)
Библиотека кодирования : XviD 1.2.1 (UTC 2008-12-04)

Аудио
Идентификатор : 1
Формат : MPEG Audio
Версия формата : Version 1
Профиль формата : Layer 3
Идентификатор кодека : 55
Идентификатор кодека/Подсказка : MP3
Продолжительность : 1 ч. 30 м.
Продолжительность оригинала : 45 м.
Вид битрейта : Постоянный
Битрейт : 128 Кбит/сек
Каналы : 2 канала
Частота : 48,0 КГц
Метод сжатия : С потерями
Размер потока : 41,3 Мбайт (6%)
Выравнивание : Соединение по промежуткам
Продолжительность промежутка : 42 мс. (1,00 видеокадр)
Время предзагрузки промежутка : 504 мс.
Библиотека кодирования : LAME3.97
Настройки программы : -m s -V 4 -q 2 -lowpass 17 -b 128

pb.wtf



Скачать Джиперс Криперс через торрент http://3.firepic.org/3/images/2012-11/25/sxmx9os56cv2.jpg Скачать фильм Джиперс Криперс через торрент бесплантно в хорошем качестве Описание: Если бы Дэрри и Триш знали, во что превратится их обычное путешествие домой на каникулы, то остались бы в колледже навсегда. Брат ... 10 10 2
Info! Золотая раздача, скачанное не засчитывается.
Торрент: Зарегистрирован [2012-11-25 17:38] · скачан: 78 раз
Статус: √ проверено
Размер: 742 MB
Как cкачать? Как скачать Джиперс Криперс через торрент | UTorrent

% Раздел Тема Автор DL S | L
Фильмы с авторской озвучкой [ 1.6 GB ] Джиперс Криперс 3 / Крылатый охотник 3 / Jeepers Creepers 3 [2017 BDRip] 2x[AVO] killermax2013 Скачать
1 | 0
Фильмы [HD 720p, 1080p] (Хороший звук DUB, MVO) [ 5 GB ] Джиперс Криперс 3 / Jeepers Creepers 3 [2017 BDRip 720p] bober100 Скачать
1 | 0
Фильмы 2017 [DVDrip, WEB-DLRip, HDrip] (DUB, MVO) [ 1.42 GB ] Джиперс Криперс 3 / Jeepers Creepers 3 [2017 BDRip] - Twi7ter Скачать
1 | 0
Фильмы [HD 720p, 1080p] (Хороший звук DUB, MVO) [ 10.98 GB ] Джиперс Криперс 3 / Jeepers Creepers 3 [2017 BDRip 1080p] killermax2013 Скачать
1 | 0
Фильмы (Blu-ray, BD-Remux, HDDVD) [ 19.13 GB ] Джиперс Криперс 3 / Jeepers Creepers 3 [2017 Blu-Ray Remux 1080p] killermax2013 Скачать
1 | 0
Фильмы 2001-2005 [ 1.45 GB ] Джиперс Криперс / Jeepers Creepers [2001 BDRip-AVC] DUB AVO Eng Sub serg7628 Скачать
1 | 0
Сборники и Сиквелы (48-60 fps) [ 20.96 GB ] Джиперс Криперс: Дилогия / Jeepers Creepers: Dilogy [2001-2002 Германия BDRip 1080p / 60 FPS ] Tiberiumsun69 Скачать
1 | 0

28-11-2019 20:33  

Отключить всю рекламу на сайте

25-11-2012 17:41 Джиперс Криперс Скачать торрент  

Классика жанра, фильм супер, спс.. Жду фильм третий........pb.wtf



25-11-2012 17:51 Джиперс Криперс Скачать торрент  

dabrik писал(а):

Классика жанра, фильм супер, спс.. Жду фильм третий........

третью часть обещают в 2013мpb.wtf



    Дорогой пользователь! Огромная просьба, поблагодарите релизера, оцените раздачу и оставьте свои комментарий, если Вы скачали Джиперс Криперс через торрент бесплатно! Внесите свою лепту в развитие PiratBit!
    Комментировать посты могут только пользователи прошедшие не сложную регистрацию
    Показать сообщения:    

    Джиперс Криперс через торрент
    Скачать бесплатно Джиперс Криперс
    Джиперс Криперс скачать торрент
    Джиперс Криперс смотреть онлайн
    Cкачать фильм Джиперс Криперс бесплатно
    Джиперс Криперс скачать торрент в хорошем качестве
    Джиперс Криперс смотреть онлайн бесплатно в хорошем качестве


    Вы не можете начинать темы
    Вы не можете отвечать на сообщения
    Вы не можете редактировать свои сообщения
    Вы не можете удалять свои сообщения
    Вы не можете голосовать в опросах
    Вы не можете прикреплять файлы к сообщениям
    Вы можете скачивать файлы