1 сезон

3 сезон

iTunes

1

Line

MVO

iTunes

13

1 сезон

RePack

30

Deluxe

pack

Лицензия

ВАЖНО

ИГРА 18+

pack

RePack

MK11

RePack

jed

RePack

fifa19

RePack

RDR2

RePack

NEED FOR SPEED™ PAYBACK

4 сезон

9 сезон

Бесстыжие 9 сезон

Все сериалы

все сериалы на PB.wtf

RePack

FAR CRY 5

Anonymous, добрый вечер, мы катастрофически не успеваем собрать деньги на оплату серверов, помогите нам пожалуйста 5,10,15р., для нас важна любая помощь . В качестве благодарности мы отключим Вам всю рекламу на сайте (укажите свой ник в строку Ваше имя)!

×
  
Magnet ссылка

Агент Хамилтон: В интересах нации / Hamilton - I nationens intresse (Кэтрин Уиндфельд / Kathrine Windfeld) [2012, боевик, триллер, драма, DVD5] R5 pb.wtf

Агент Хамилтон: В интересах нации через торрент pb.wtf

Размер: 4.36 GB | Добавлен: 8 лет 8 мес. назад | Торрент скачан:101 раз
Скачать  

25-11-2012 19:54 Агент Хамилтон: В интересах нации Скачать торрент  


Агент Хамилтон: В интересах нации / Hamilton - I nationens intresse
Страна: Швеция
Студия: Pampas Produktion, TV4 Sweden
Жанр: боевик, триллер, драма
Год выпуска: 2012
Мировая премьера: 13 января 2012
Дата выхода DVD: 26 ноября 2012
Продолжительность: 01:49:17
Перевод: Профессиональный (многоголосый закадровый) [Лицензия]
Cубтитры: нет
Оригинальная аудиодорожка: нет
Режиссер: Кэтрин Уиндфельд / Kathrine Windfeld
В ролях: Микаэл Персбрандт, Пернилла Аугуст, Джейсон Флеминг, Леннарт Юльстрём, Александр Носик, Рэй Фиарон, Петер Андерссон, Густаф Хаммарстен, Дэн Экбор
Описание: Специальный агент Карл Гамильтон с секретной миссией на границе между Узбекистаном и Афганистаном. Он внедряется в тайную организацию русской мафии, которая украла сложные GPS-управляемые артиллерийские снаряды, экспортируемые шведской оборонной компанией Nordfors. Неожиданно они подвергаются нападению неизвестной группы вооруженных наемников, которые убивают всех, кроме Гамильтона, и скрываются вместе со снарядами.
Между тем, похищен шведский оружейный техник и заключен в тюрьму Сомали. Премьер-министр соглашается провести спасательную операцию при участии частной американской охранной компании Sectragon, с условием, что шведский наблюдатель будет присутствовать, а именно Карл Гамильтон. Гамильтон участвует в спасательной операции, но он чувствовал, что что-то не так. Кто-то говорит неправду, и он готов узнать, что происходит на самом деле.

Бонусы: нет

Релиз группы:
Качество: DVD5 R5
Формат: DVD-Video
Видео кодек: MPEG2
Аудио кодек: AC3
Видео: NTSC 16:9 (720x480(0.603)) MPEG Video, 25,000 кадр/сек, 5000 Кбит/сек
Аудио: Russian (Dolby AC3, 6 ch) 448 Кбит/сек, 48,0 КГц



Title: Agent.Xamilton.V.interesax.nacii.2012.DVD5
Size: 4.36 Gb ( 4 568 322,00 KBytes ) - DVD-5
Enabled regions: 1, 2, 3, 4, 5, 6, 7, 8

VTS_01 :
Play Length: 01:49:17
Video: NTSC 16:9 (720x480) VBR, Auto Letterboxed
Audio:
Russian (Dolby AC3, 6 ch)

VTS_02 :
Play Length: 00:00:10
Video: NTSC 4:3 (720x480) VBR
Audio:
Russian (Dolby AC3, 2 ch)

* Menus Information *

VIDEO_TS Menu
Video:
NTSC 4:3 (720x480) VBR
English Language Unit :
Title Menu

VTS_01 Menu
Video:
NTSC 16:9 (720x480) VBR
Auto Letterboxed
Audio:
Not specified (Dolby AC3, 2 ch)
English Language Unit :
Root Menu

VTS_02 Menu
Video:
NTSC 4:3 (720x480) VBR
English Language Unit :
Root Menu
Общее
Полное имя : J:Новинки 2012Agent.Xamilton.V.interesax.nacii.2012.DVD5VIDEO_TSVTS_01_1.VOB
Формат : MPEG-PS
Размер файла : 1024 Мбайт
Продолжительность : 25 м.
Общий поток : 5562 Кбит/сек

Видео
Идентификатор : 224 (0xE0)
Формат : MPEG Video
Версия формата : Version 2
Профиль формата : Main@Main
Параметр BVOP формата : Да
Параметр матрицы формата : По умолчанию
Параметр GOP формата : M=3, N=12
Продолжительность : 25 м.
Битрейт : 5000 Кбит/сек
Ширина : 720 пикселей
Высота : 480 пикселей
Соотношение сторон : 16:9
Частота кадров : 23,976 кадра/сек
Стандарт вещания : NTSC
Цветовое пространство : YUV
Субдискретизация насыщенности : 4:2:0
Битовая глубина : 8 бит
Тип развёртки : Прогрессивная
Порядок развёртки : 2:3 Pulldown
Метод сжатия : С потерями
Бит/(Пиксели*Кадры) : 0.603
Размер потока : 921 Мбайт (90%)

Аудио
Идентификатор : 189 (0xBD)-128 (0x80)
Формат : AC-3
Формат/Информация : Audio Coding 3
Расширение режима : CM (complete main)
Параметр Endianness формата : Big
Режим смешивания : DVD-Video
Продолжительность : 25 м.
Вид битрейта : Постоянный
Битрейт : 448 Кбит/сек
Каналы : 6 каналов
Расположение каналов : Front: L C R, Side: L R, LFE
Частота : 48,0 КГц
Битовая глубина : 16 бит
Метод сжатия : С потерями
Задержка видео : -83 мс.
Размер потока : 82,5 Мбайт (8%)










pb.wtf



Скачать Агент Хамилтон: В интересах нации через торрент http://i47.fastpic.ru/big/2012/1125/af/0fc96e314c0b881b9b6022db28aa36af.jpg Скачать фильм Агент Хамилтон: В интересах нации через торрент бесплантно в хорошем качестве Описание: Специальный агент Карл Гамильтон с секретной миссией на границе между Узбекистаном и Афганистаном. Он внедряется в тайную ... 5 10 1
Info! Золотая раздача, скачанное не засчитывается.
Торрент: Зарегистрирован [2012-11-25 19:54] · скачан: 101 раз
Статус: √ проверено
Размер: 4.36 GB
Как cкачать? Как скачать Агент Хамилтон: В интересах нации через торрент | UTorrent

28-11-2019 20:33  

Отключить всю рекламу на сайте

    Дорогой пользователь! Огромная просьба, поблагодарите релизера, оцените раздачу и оставьте свои комментарий, если Вы скачали Агент Хамилтон: В интересах нации через торрент бесплатно! Внесите свою лепту в развитие PiratBit!
    Комментировать посты могут только пользователи прошедшие не сложную регистрацию
    Показать сообщения:    

    Агент Хамилтон: В интересах нации через торрент
    Скачать бесплатно Агент Хамилтон: В интересах нации
    Агент Хамилтон: В интересах нации скачать торрент
    Агент Хамилтон: В интересах нации смотреть онлайн
    Cкачать фильм Агент Хамилтон: В интересах нации бесплатно
    Агент Хамилтон: В интересах нации скачать торрент в хорошем качестве
    Агент Хамилтон: В интересах нации смотреть онлайн бесплатно в хорошем качестве


    Вы не можете начинать темы
    Вы не можете отвечать на сообщения
    Вы не можете редактировать свои сообщения
    Вы не можете удалять свои сообщения
    Вы не можете голосовать в опросах
    Вы не можете прикреплять файлы к сообщениям
    Вы можете скачивать файлы