1 сезон

1 сезон

iTunes

1

КиноПоиск HD

Кинопоиск HD

iTunes

13

1 сезон

RePack

30

Новинка

ВАЖНО

ИГРА 18+

pack

RePack

MK11
pack

Легкие деньги

RePack

jed

RePack

fifa19

RePack

RDR2

RePack

NEED FOR SPEED™ PAYBACK

4 сезон

9 сезон

Бесстыжие 9 сезон

Все сериалы

все сериалы на PB.wtf

RePack

FAR CRY 5
  
Magnet ссылка

Белый шум / White Noise (Джеффри Сакс) [2005 г., Ужасы, фантастика, триллер, драма, мистика, HDRip, Дубляж ] pb.wtf

Белый шум через торрент pb.wtf

Размер: 744 MB | Добавлен: 8 лет 4 мес. назад | Торрент скачан:118 раз
Скачать  

26-11-2012 18:52 Белый шум Скачать торрент  

Белый шум / White Noise

Год выпуска: 2005
Страна: США, Великобритания, Канада
Жанр: Ужасы, фантастика, триллер, драма, мистика
Продолжительность: 01:38:00
Перевод: Профессиональный (полное дублирование)

Режиссер: Джеффри Сакс

Бюджет: $10 000 000
Премьера в мире: 7 января 2005



В ролях: Майкл Китон, Чандра Уэст, Дебора Кара Ангер, Иэн МакНис, Сара Стрэйндж, Николас Элиа, Майк Допуд, Марша Режис, Брэд Сивон, Митчел Костерман
Описание: Потеряв любимую жену Анну, Джонатан решает начать новую жизнь. Он переезжает в новый дом, перестает общаться с друзьями. Но однажды он получает странную видеокассету. Ему кажется, что на кассете - сообщение от его жены. Постепенно Джонатан начинает слышать ее голос среди радиошумов и узнавать ее лицо в помехах на экране телевизора. Она хочет предупредить мужа об опасности. Но о какой? И Анна ли это?
Качество: HDRip
Формат: AVI
Видео кодек: XviD
Аудио кодек: MP3
Видео: 688x288 (2.39:1), 23.976 fps, XviD build 47 ~924 kbps avg, 0.19 bit/pixel
Аудио: 48 kHz, MPEG Layer 3, 2 ch, ~128.00 kbps avg
Релиз от: Scarabey

[/url]










Полное имя : C:DownloadTorrentБелый шум White Noise (2005) DVDRipBelyi_shum_[scarabey.org]_by_Scarabey.avi
Формат : AVI
Формат/Информация : Audio Video Interleave
Размер файла : 744 Мбайт
Продолжительность : 1 ч. 38 м.
Общий поток : 1062 Кбит/сек
Программа кодирования : VirtualDubMod 1.5.10.2 (build 2540/release)
Библиотека кодирования : VirtualDubMod build 2540/release

Видео
Идентификатор : 0
Формат : MPEG-4 Visual
Профиль формата : Advanced Simple@L5
Параметр BVOP формата : 1
Параметр QPel формата : Нет
Параметр GMC формата : Без точки перехода
Параметр матрицы формата : Default (MPEG)
Идентификатор кодека : XVID
Идентификатор кодека/Подсказка : XviD
Продолжительность : 1 ч. 38 м.
Продолжительность оригинала : 52 м.
Битрейт : 959 Кбит/сек
Ширина : 688 пикселей
Высота : 288 пикселей
Соотношение сторон : 2,40:1
Частота кадров : 23,976 кадра/сек
Цветовое пространство : YUV
Субдискретизация насыщенности : 4:2:0
Битовая глубина : 8 бит
Тип развёртки : Прогрессивная
Метод сжатия : С потерями
Бит/(Пиксели*Кадры) : 0.202
Размер потока : 360 Мбайт (48%)
Библиотека кодирования : XviD 1.2.0.dev47 (UTC 2006-11-01)

Аудио
Идентификатор : 1
Формат : MPEG Audio
Версия формата : Version 1
Профиль формата : Layer 3
Идентификатор кодека : 55
Идентификатор кодека/Подсказка : MP3
Продолжительность : 1 ч. 38 м.
Продолжительность оригинала : 52 м.
Вид битрейта : Постоянный
Битрейт : 128 Кбит/сек
Каналы : 2 канала
Частота : 48,0 КГц
Метод сжатия : С потерями
Размер потока : 48,0 Мбайт (6%)
Выравнивание : Соединение по промежуткам
Продолжительность промежутка : 42 мс. (1,00 видеокадр)
Время предзагрузки промежутка : 504 мс.
Библиотека кодирования : LAME3.97
Настройки программы : -m s -V 4 -q 2 -lowpass 17 -b 128

pb.wtf



Скачать Белый шум через торрент http://firepic.org/images/2012-11/26/4yrouz4j0hf3.jpg Скачать фильм Белый шум через торрент бесплантно в хорошем качестве Описание: Потеряв любимую жену Анну, Джонатан решает начать новую жизнь. Он переезжает в новый дом, перестает общаться с друзьями. Но ... 10 10 2
× Info от релизера! Belyi_shum.avi
Info! Золотая раздача, скачанное не засчитывается.
Торрент: Зарегистрирован [2012-11-26 18:58] · скачан: 118 раз
Статус: √ проверено
Размер: 744 MB
Как cкачать? Как скачать Белый шум через торрент | UTorrent

% Раздел Тема Автор DL S | L
Фильмы [HD 720p, 1080p] (Хороший звук DUB, MVO) [ 7.79 GB ] Белый шум 2: Сияние / White Noise 2: The Light [2007 BDRip 1080p DUB] Pavlin Скачать
1 | 0
Фильмы [HD 720p, 1080p] (Хороший звук DUB, MVO) [ 5.31 GB ] Белый шум 2: Сияние / White Noise 2: The Light [2007 BDRip-HEVC 1080p ] DUB [] bober100 Скачать
1 | 0
Фильмы [HD 720p, 1080p] (Хороший звук DUB, MVO) [ 5.81 GB ] Белый шум / White Noise [2005 BDRip-HEVC 1080p ] DUB [] bober100 Скачать
1 | 0
Фильмы [HD 720p, 1080p] (Хороший звук DUB, MVO) [ 8.03 GB ] Белый шум / White Noise [2005 BDRip] + Авторский одноголосый GEKADOL Скачать
1 | 0
Фильмы [HD 720p, 1080p] (Хороший звук DUB, MVO) [ 7.1 GB ] Белый шум / White Noise [2005 BDRip 720p DUB лицензия] Sудья Скачать
1 | 0
Фильмы 2006-2008 [ 1.45 GB ] Белый шум 2: Сияние / White Noise 2: The Light [2007 HDRip-AVC] Sудья Скачать
1 | 0
Фильмы 2001-2005 [ 1.45 GB ] Белый шум / White Noise [2005 HDRip-AVC] Sудья Скачать
1 | 0

28-11-2019 20:33  

Отключить всю рекламу на сайте

    Дорогой пользователь! Огромная просьба, поблагодарите релизера, оцените раздачу и оставьте свои комментарий, если Вы скачали Белый шум через торрент бесплатно! Внесите свою лепту в развитие PiratBit!
    Комментировать посты могут только пользователи прошедшие не сложную регистрацию
    Показать сообщения:    

    Белый шум через торрент
    Скачать бесплатно Белый шум
    Белый шум скачать торрент
    Белый шум смотреть онлайн
    Cкачать фильм Белый шум бесплатно
    Белый шум скачать торрент в хорошем качестве
    Белый шум смотреть онлайн бесплатно в хорошем качестве


    Вы не можете начинать темы
    Вы не можете отвечать на сообщения
    Вы не можете редактировать свои сообщения
    Вы не можете удалять свои сообщения
    Вы не можете голосовать в опросах
    Вы не можете прикреплять файлы к сообщениям
    Вы можете скачивать файлы