1 сезон

1 сезон

iTunes

1

КиноПоиск HD

Кинопоиск HD

iTunes

13

1 сезон

RePack

30

Ultimate

ВАЖНО

ИГРА 18+

pack

RePack

MK11
pack

Легкие деньги

RePack

jed

RePack

fifa19

RePack

RDR2

RePack

NEED FOR SPEED™ PAYBACK

4 сезон

9 сезон

Бесстыжие 9 сезон

Все сериалы

все сериалы на PB.wtf

RePack

FAR CRY 5
  
Magnet ссылка

Участь Салема / 'Salem's Lot (Микаэл Саломон) [2004 г., ужасы, триллер, драма, детектив, DVDRip-AVC, MVO] pb.wtf

Участь Салема через торрент pb.wtf

Размер: 2.14 GB | Добавлен: 8 лет 4 мес. назад | Торрент скачан:175 раз
Скачать  

27-11-2012 10:04 Участь Салема Скачать торрент  

Участь Салема / 'Salem's Lot

Год выпуска: 2004
Страна: США [sup] [/sup]
Жанр: ужасы, триллер, драма, детектив
Продолжительность: 03:01:07
Перевод: Профессиональный многоголосый[НТВ+]


Режиссер: Микаэл Саломон
Продюссер: Бретт Попплуэлл, Джеффри М. Хэйес, Марк Ван Буурен
Сценарий: Стивен Кинг, Питер Филарди

Бюджет: $25 000 000
Премьера в мире: 2 июня 2004




В ролях[/b] : Роб Лоу, Андре Брогер, Дональд Сазерленд, Саманта Мэтис, Роберт Маммоне, Дэн Берд, Рутгер Хауэр, Джеймс Кромуэлл, Энди Андерсон, Роберт Грубб


Описание : Салем... Еще в 17 веке этот городок прославился жуткой историей — процессом салемских ведьм... Все началось с того, что в провинциальном американском городке стали пропадать люди — поодиночке и целыми семьями.Их не могли найти ни родственники, ни даже полиция. А когда надежда исчезла, казалось, навсегда, пропавшие вернулись, и городок содрогнулся от ужаса...

Качество: DVDRip-AVC
Формат: MKV
Видео кодек: H.264
Аудио кодек: AC3
Видео: 720x 400 (16:9),23,976fps, AVC MPEG-4 (H.264), ~1086 kbps avg,0.157 bit/pixel
Аудио#1: русский 48 kHz, AC3 Dolby Digital, 3/2 (L,C,R,l,r) + LFE ch, ~384 kbps avg Профессиональный многоголосый
Аудио#2: английский 48 kHz, AC3 Dolby Digital, 2 (L,R) ~224 kbps avg Оригинал


Автор рипа:





Общее
Уникальный идентификатор : 252291833899697505524376769150736774638 (0xBDCDA3C7850E7EDABBFBD0D0FB4DB5EE)
Полное имя : E:ТоррентыPiratbit'Salem's Lot .mkv
Формат : Matroska
Версия формата : Version 2
Размер файла : 2,14 Гбайт
Продолжительность : 3 ч. 1 м.
Общий поток : 1692 Кбит/сек
Дата кодирования : UTC 2012-11-27 09:14:12
Программа кодирования : mkvmerge v4.4.0 ('Die Wiederkehr') сборка от Oct 31 2010 21:52:48
Библиотека кодирования : libebml v1.0.0 + libmatroska v1.0.0

Видео
Идентификатор : 1
Формат : AVC
Формат/Информация : Advanced Video Codec
Профиль формата : High@L4.1
Параметр CABAC формата : Да
Параметр ReFrames формата : 8 кадров
Режим смешивания : Header stripping
Идентификатор кодека : V_MPEG4/ISO/AVC
Продолжительность : 3 ч. 1 м.
Битрейт : 1086 Кбит/сек
Ширина : 720 пикселей
Высота : 400 пикселей
Соотношение сторон : 16:9
Частота кадров : 23,976 кадра/сек
Цветовое пространство : YUV
Субдискретизация насыщенности : 4:2:0
Битовая глубина : 8 бит
Тип развёртки : Прогрессивная
Бит/(Пиксели*Кадры) : 0.157
Размер потока : 1,33 Гбайт (62%)
Библиотека кодирования : x264 core 125 r2200 999b753
Настройки программы : cabac=1 / ref=8 / deblock=1:0:0 / analyse=0x3:0x113 / me=hex / subme=7 / psy=1 / psy_rd=1.00:0.00 / mixed_ref=1 / me_range=16 / chroma_me=1 / trellis=1 / 8x8dct=1 / cqm=0 / deadzone=21,11 / fast_pskip=1 / chroma_qp_offset=-2 / threads=6 / lookahead_threads=1 / sliced_threads=0 / nr=0 / decimate=1 / interlaced=0 / bluray_compat=0 / constrained_intra=0 / bframes=8 / b_pyramid=2 / b_adapt=1 / b_bias=0 / direct=1 / weightb=1 / open_gop=0 / weightp=2 / keyint=250 / keyint_min=23 / scenecut=40 / intra_refresh=0 / rc_lookahead=40 / rc=abr / mbtree=1 / bitrate=1086 / ratetol=1.0 / qcomp=0.60 / qpmin=0 / qpmax=69 / qpstep=4 / ip_ratio=1.40 / aq=1:1.00
Default : Да
Forced : Нет

Аудио #1
Идентификатор : 2
Формат : AC-3
Формат/Информация : Audio Coding 3
Расширение режима : CM (complete main)
Параметр Endianness формата : Big
Режим смешивания : Header stripping
Идентификатор кодека : A_AC3
Продолжительность : 3 ч. 1 м.
Вид битрейта : Постоянный
Битрейт : 384 Кбит/сек
Каналы : 6 каналов
Расположение каналов : Front: L C R, Side: L R, LFE
Частота : 48,0 КГц
Битовая глубина : 16 бит
Метод сжатия : С потерями
Размер потока : 497 Мбайт (23%)
Язык : Russian
Default : Да
Forced : Нет

Аудио #2
Идентификатор : 3
Формат : AC-3
Формат/Информация : Audio Coding 3
Расширение режима : CM (complete main)
Параметр Endianness формата : Big
Режим смешивания : Header stripping
Идентификатор кодека : A_AC3
Продолжительность : 3 ч. 1 м.
Вид битрейта : Постоянный
Битрейт : 224 Кбит/сек
Каналы : 2 канала
Расположение каналов : Front: L R
Частота : 48,0 КГц
Битовая глубина : 16 бит
Метод сжатия : С потерями
Размер потока : 290 Мбайт (13%)
Язык : English
Default : Нет
Forced : Нет


Участь Салема скачать торрент


pb.wtf



Скачать Участь Салема через торрент https://pic.kartinco.top/images/1/c81z5sh1sh.png Скачать фильм Участь Салема через торрент бесплантно в хорошем качестве В ролях[/b] : Роб Лоу, Андре Брогер, Дональд Сазерленд, Саманта Мэтис, Роберт Маммоне, Дэн Берд, Рутгер Хауэр, Джеймс Кромуэлл, Энди ... 10 10 4
Info! Золотая раздача, скачанное не засчитывается.
Торрент: Зарегистрирован [2012-11-27 10:04] · скачан: 175 раз
Статус: √ проверено
Размер: 2.14 GB
Как cкачать? Как скачать Участь Салема через торрент | UTorrent

28-11-2019 20:33  

Отключить всю рекламу на сайте

10-02-2015 18:42 Участь Салема Скачать торрент  

lev1244v, раздай салемpb.wtf



    Дорогой пользователь! Огромная просьба, поблагодарите релизера, оцените раздачу и оставьте свои комментарий, если Вы скачали Участь Салема через торрент бесплатно! Внесите свою лепту в развитие PiratBit!
    Комментировать посты могут только пользователи прошедшие не сложную регистрацию
    Показать сообщения:    

    Участь Салема через торрент
    Скачать бесплатно Участь Салема
    Участь Салема скачать торрент
    Участь Салема смотреть онлайн
    Cкачать фильм Участь Салема бесплатно
    Участь Салема скачать торрент в хорошем качестве
    Участь Салема смотреть онлайн бесплатно в хорошем качестве


    Вы не можете начинать темы
    Вы не можете отвечать на сообщения
    Вы не можете редактировать свои сообщения
    Вы не можете удалять свои сообщения
    Вы не можете голосовать в опросах
    Вы не можете прикреплять файлы к сообщениям
    Вы можете скачивать файлы