новый адрес пиратбит piratbit
Мега распродажа FORZA HORIZON 4 ULTIMATE+ВСЕ DLC+ОНЛАЙН всего за 499р. 349 руб. (супер цена). Внимание количество ограничено!!!

iTunes

1+1

iTunes

мы

iTunes

1

iTunes

Чернобыль

iTunes

Ральф против интернета

Лицензия

ПШазам

Лицензия

Игра престолов

Лицензия

30
pack

ВАЖНО

!!Акция!!

Alien_RageХит недели

RePack

Resident Evil 21

ИГРА 18+

pack

RePack

Metro:Exodus

!!Акция!!

Alien_Rage

RePack

fifa19

RePack

Assassins Creed: Odyssey

RePack

NEED FOR SPEED™ PAYBACK

3 сезон

9 сезон

Бесстыжие 9 сезон

Все сериалы

все сериалы на PB.wtf

RePack

FAR CRY 5
Ребята, катастрофически не хватает 1900р. для оплаты серверов за Октябрь (всвязи с блокировками трафик упал в 3 раза), 1-2р., выручайте.
  

Урга: Территория любви (Никита Михалков) [1991 г., драма, DVDRip, Оригинал] pb.wtf

Урга: Территория любви через торрент pb.wtf

Размер: 1.37 GB | Добавлен: 6 лет 11 мес. назад | Торрент скачан:7 раз
Скачать  

27-11-2012 18:21 Урга: Территория любви Скачать торрент  

Урга: Территория любви

Год выпуска: 1991
Страна: СССР, Франция
Жанр: драма
Продолжительность: 01:53:58
Перевод: Оригинал

Режиссер: Никита Михалков
Сценарий: Рустам Ибрагимбеков, Никита Михалков

Премьера в мире: 1 сентября 1991

рекомендуется присутствие родителей

http://www.kinopoisk.ru/film/7735/

В ролях: Бадема, Байярту, Владимир Гостюхин, Бабушка, Лариса Кузнецова, Йон Бочинский, Ёнянь Бао, Вуринил, Бяо Ван, Байюнгя, Николай Вощилин, Цзиньшэн Бао, Никита Михалков, Буринил

Описание: Взяв практически анекдотическую жизненную ситуацию о том, как степной монгол поехал в город за средствами предохранения, так как по закону он не имел права иметь больше трех детей, режиссеру удалось создать произведение искусства высочайшей пробы, насыщенное добротой, человечностью и состраданием, проповедующее терпимость и понимание между народами без единой фальшивой ноты.

Доп. информация: Монгольская любящая пара, живущая в степи приграничного района с Китаем, по законам не может иметь больше трех детей. Но троих она уже имеет. Тогда Пагма посылает любящего мужа в город за презервативами. Он едет в город за покупкой вместе с русским шофером. Но вместо этого герой покупает телевизор, ковбойскую шляпу и велосипед. А, вернувшись домой, втыкает в землю шест с ургой, как символ желания дать жизнь еще одному человеку. Взяв практически анекдотическую жизненную ситуацию о том, как степной монгол поехал в город за презервативами, так как по закону он не имел права иметь больше трех детей, а заниматься сексом все равно хотелось, режиссеру удалось создать высочайшей пробы произведение искусства, насыщенное истинной добротой, человечностью и состраданием.

Качество: DVDRip
Формат: AVI
Видео кодек: XviD
Аудио кодек: AC3
Видео: MPEG-4 Visual, XviD, 1265 Кбит/сек, 704х384 пикселя, 25,000 кадров/сек
Аудио#1: AC-3, 448 Кбит/сек, 6 каналов, 48,0 КГц





Формат : AVI
Формат/Информация : Audio Video Interleave
Размер файла : 1,37 Гбайт
Продолжительность : 1 ч. 53 м.
Общий поток : 1723 Кбит/сек
Программа кодирования : VirtualDubMod 1.5.10.2 (build 2540/release)
Библиотека кодирования : VirtualDubMod build 2540/release

Видео
Идентификатор : 0
Формат : MPEG-4 Visual
Профиль формата : Advanced Simple@L5
Параметр BVOP формата : Нет
Параметр QPel формата : Да
Параметр GMC формата : Без точки перехода
Параметр матрицы формата : Default (MPEG)
Идентификатор кодека : XVID
Идентификатор кодека/Подсказка : XviD
Продолжительность : 1 ч. 53 м.
Битрейт : 1265 Кбит/сек
Ширина : 704 пикселя
Высота : 384 пикселя
Соотношение сторон : 1,85:1
Частота кадров : 25,000 кадров/сек
Цветовое пространство : YUV
Субдискретизация насыщенности : 4:2:0
Битовая глубина : 8 бит
Тип развёртки : Прогрессивная
Метод сжатия : С потерями
Бит/(Пиксели*Кадры) : 0.187
Размер потока : 1,01 Гбайт (73%)
Библиотека кодирования : XviD 1.2.0.dev47 (UTC 2006-11-01)

Аудио
Идентификатор : 1
Формат : AC-3
Формат/Информация : Audio Coding 3
Расширение режима : CM (complete main)
Параметр Endianness формата : Big
Идентификатор кодека : 2000
Продолжительность : 1 ч. 53 м.
Вид битрейта : Постоянный
Битрейт : 448 Кбит/сек
Каналы : 6 каналов
Расположение каналов : Front: L C R, Side: L R, LFE
Частота : 48,0 КГц
Битовая глубина : 16 бит
Метод сжатия : С потерями
Размер потока : 365 Мбайт (26%)
Выравнивание : Разделение по промежуткам
Продолжительность промежутка : 40 мс. (1,00 видеокадр)
Время предзагрузки промежутка : 500 мс.

pb.wtf



Скачать Урга: Территория любви через торрент http://pic.kartinco.top/images/1/738ft6gkwn.jpg Скачать фильм Урга: Территория любви через торрент бесплантно в хорошем качестве Описание: Взяв практически анекдотическую жизненную ситуацию о том, как степной монгол поехал в город за средствами предохранения, так как ... 6 10 1
Info! Золотая раздача, скачанное не засчитывается.
Торрент: Зарегистрирован [2012-11-27 18:21] · скачан: 7 раз
Статус: √ проверено
Размер: 1.37 GB
Как cкачать? Как скачать Урга: Территория любви через торрент | qTorrent


>> Регистрируемся здесь <<






Отзывы и комментарии о схеме читаем и пишем здесь: ---> Отзывы и комментарии о схеме

Новые благодарочки в телеграм довольных пользователей:
скриншот   скриншот   скриншот   скриншот   скриншот

27-11-2012 19:49 Урга: Территория любви Скачать торрент  

ну,а раздавать кто будет???pb.wtf



    Дорогой пользователь! Огромная просьба, поблагодарите релизера, оцените раздачу и оставьте свои комментарий, если Вы скачали Урга: Территория любви через торрент бесплатно! Внесите свою лепту в развитие PiratBit!
    Комментировать посты могут только пользователи прошедшие не сложную регистрацию
    Показать сообщения:    

    Урга: Территория любви через торрент
    Скачать бесплатно Урга: Территория любви
    Урга: Территория любви скачать торрент
    Урга: Территория любви смотреть онлайн
    Cкачать фильм Урга: Территория любви бесплатно
    Урга: Территория любви скачать торрент в хорошем качестве
    Урга: Территория любви смотреть онлайн бесплатно в хорошем качестве


    Вы не можете начинать темы
    Вы не можете отвечать на сообщения
    Вы не можете редактировать свои сообщения
    Вы не можете удалять свои сообщения
    Вы не можете голосовать в опросах
    Вы не можете прикреплять файлы к сообщениям
    Вы можете скачивать файлы